Browse Collections Artists Sources   Search Dates

Add Show    List Management    Help


Grateful Dead 03/23/81
Rainbow Theater, London, England
Comments Add Comment    Source Collectors    Add to Collection    Add to Want List    History
Source # 139843 Other Sources
Entered by Matt Vernon
Checksums ffp , flac-md5
Disc Counts 0 / 0
Media Size
Date Circulated
Date Added
11/17/2017
11/17/2017
Source Summary flac24; Source Info: Frank Streeter's Master Audience Cassette(at the soundboard); Sennheiser 421 > Sony TC-D5M (TDK MA90); Transfer Info: Cassette Master (Nakamichi CR-7A) > Tascam DA-3000 (DSF 1-bit/5.8 MHz)> KORG AudioGate 4 > Adobe Audition 3.0> TLH flac2496; Transfer by Charlie Miller; Mastered by Scott Clugston 
  Archive
Source Information - Download Text | Download Zip
Grateful Dead
Rainbow Theatre
London, England
Monday March 23, 1981

Source Info:
Frank Streeter's Master Audience Cassette(at the soundboard); Sennheiser 421 > Sony TC-D5M (TDK MA90)

Transfer Info:
Cassette Master (Nakamichi CR-7A) > Tascam DA-3000 (DSF 1-bit/5.8 MHz)> KORG AudioGate 4 > Adobe Audition 3.0> TLH flac2496

Transfer by Charlie Miller
Mastered by Scott Clugston
11/16/17

Notes:
- Thanks to Frank Streeter for the source cassettes
- Thanks to Charlie Miller for the transfer
- Thanks to the folks responsible for shnid6685 unknown audience source which supplies from 15:15 thru 15:22 of "Playing In The Band" (a medalist contender for fastest tape flip)
- Between song transitions smoothed

Set One:
s1 t01. Intro/Crowd
s1 t02. Jack Straw
s1 t03. They Love Each Other
s1 t04. Cassidy
s1 t05. It Must Have Been The Roses ->
s1 t06. El Paso
s1 t07. Ramble On Rose
s1 t08. New Minglewood Blues
s1 t09. Sugaree
s1 t10. Lazy Lightning ->
s1 t11. Supplication

Set Two:
s2 t01. Crowd/tuning
s2 t02. Bird Song
s2 t03. Samson & Delilah
s2 t04. To Lay Me Down
s2 t05. Terrapin Station ->
s2 t06. Playing In The Band ->
s2 t07. Drums ->
s2 t08. The Other One Space ->
s2 t09. The Other One ->
s2 t10. Stella Blue ->
s2 t11. Sugar Magnolia
Encore:
s2 t12. Casey Jones



    length     expanded size    cdr  WAVE problems  fmt   ratio  filename
     0:56.133      32332844 B   cxx   --   ---xx   flac  0.6512  gd81-03-23 s1 t01 Crowd_Tuning.flac
     5:50.640     201968684 B   cxx   --   ---xx   flac  0.6902  gd81-03-23 s1 t02 Jack Straw.flac
     7:30.027     259215404 B   cxx   --   ---xx   flac  0.6785  gd81-03-23 s1 t03 They Love Each Other.flac
     4:54.507     169635884 B   cxx   --   ---xx   flac  0.6873  gd81-03-23 s1 t04 Cassidy.flac
     6:47.933     234969644 B   cxx   --   ---xx   flac  0.6756  gd81-03-23 s1 t05 It Must Have Been The Roses.flac
     4:54.800     169804844 B   cxx   --   ---xx   flac  0.6840  gd81-03-23 s1 t06 El Paso.flac
     7:27.240     257610284 B   cxx   --   ---xx   flac  0.6799  gd81-03-23 s1 t07 Ramble On Rose.flac
     6:53.480     238164524 B   cxx   --   ---xx   flac  0.6899  gd81-03-23 s1 t08 New Minglewood Blues.flac
    11:34.587     400081964 B   cxx   --   ---xx   flac  0.6821  gd81-03-23 s1 t09 Sugaree.flac
     3:19.333     114816044 B   cxx   --   ---xx   flac  0.6907  gd81-03-23 s1 t10 Lazy Lightning.flac
     6:26.468     222605408 B   cxx   --   ---xx   flac  0.6910  gd81-03-23 s1 t11 Supplication.flac
    14:07.307     488048684 B   cxx   --   ---xx   flac  0.6965  gd81-03-23 s2 t01 Bird Song.flac
     7:14.760     250421804 B   cxx   --   ---xx   flac  0.6957  gd81-03-23 s2 t02 Samson & Delilah.flac
    11:28.333     396480044 B   cxx   --   ---xx   flac  0.6676  gd81-03-23 s2 t03 To Lay Me Down.flac
    12:29.587     431761964 B   cxx   --   ---xx   flac  0.6861  gd81-03-23 s2 t04 Terrapin Station.flac
    17:14.213     595706924 B   cxx   --   ---xx   flac  0.6883  gd81-03-23 s2 t05 Playing In The Band.flac
     8:23.493     290012204 B   cxx   --   ---xx   flac  0.6642  gd81-03-23 s2 t06 Drums.flac
     4:02.347     139591724 B   cxx   --   ---xx   flac  0.6691  gd81-03-23 s2 t07 The Other One Space.flac
     5:10.573     178890284 B   cxx   --   ---xx   flac  0.6937  gd81-03-23 s2 t08 The Other One.flac
    11:07.653     384568364 B   cxx   --   ---xx   flac  0.6709  gd81-03-23 s2 t09 Stella Blue.flac
     9:22.280     323873324 B   cxx   --   ---xx   flac  0.6975  gd81-03-23 s2 t10 Sugar Magnolia.flac
     5:59.982     207349502 B   cxx   --   ---xx   flac  0.6936  gd81-03-23 s2 t11 Casey Jones.flac
   173:15.676    5987910350 B                            0.6841  (22 files)

No errors occured.


Show Checksums
ffp
gd81-03-23 s1 t01 Crowd_Tuning.flac:c25e26d83f6aaf41a7048142e5bb60c9
gd81-03-23 s1 t02 Jack Straw.flac:84d38d1096218d86e44a85246a444569
gd81-03-23 s1 t03 They Love Each Other.flac:eaba2a3622bd734dfa680dce1741795a
gd81-03-23 s1 t04 Cassidy.flac:407872ad2384545d332995723e6c3152
gd81-03-23 s1 t05 It Must Have Been The Roses.flac:da63372bc0d62c0670167ebc47e6e51e
gd81-03-23 s1 t06 El Paso.flac:a83e6f7b42a12e9241f67e0032cac19c
gd81-03-23 s1 t07 Ramble On Rose.flac:6687d7d86b2fdf8be132b1a603cf625d
gd81-03-23 s1 t08 New Minglewood Blues.flac:d9d08aaa004f7b17b6fbe511bfcdb5e7
gd81-03-23 s1 t09 Sugaree.flac:de0babc010294e1cd099d5d3cab706e5
gd81-03-23 s1 t10 Lazy Lightning.flac:bd16a5e3be456cb19837ace56e7c917e
gd81-03-23 s1 t11 Supplication.flac:525f62485c36ac8a5a7cce30abac2833
gd81-03-23 s2 t01 Bird Song.flac:305abbce6013c8e1dea5c1eef7b06747
gd81-03-23 s2 t02 Samson & Delilah.flac:c05793f66453f33a44733d7a765e03d7
gd81-03-23 s2 t03 To Lay Me Down.flac:2d56934798f94692396f66946356b7e1
gd81-03-23 s2 t04 Terrapin Station.flac:74f4daa21d2bc7ec828e95830f053895
gd81-03-23 s2 t05 Playing In The Band.flac:dd2af317e78eaca2f83b374af9b23a85
gd81-03-23 s2 t06 Drums.flac:96ee6d858020d9e7a6390e4a7ce090e5
gd81-03-23 s2 t07 The Other One Space.flac:1856edeeff733a5464ca6b63a03a42c2
gd81-03-23 s2 t08 The Other One.flac:8680a7372de3c60cd5f683670851b390
gd81-03-23 s2 t09 Stella Blue.flac:c1b2dfa9947f52a1b31f316618e97d9d
gd81-03-23 s2 t10 Sugar Magnolia.flac:7e7b9ee549a46ad17b88c64b02e9d2d9
gd81-03-23 s2 t11 Casey Jones.flac:99db4ecb3c8322fb0ffc7b8cdc44223b
flac-md5
15e44064f5328baf2bf5907580cdf507 *gd81-03-23 s1 t01 Crowd_Tuning.flac
a3b91caf22f862330ae3c934ee2823f9 *gd81-03-23 s1 t02 Jack Straw.flac
28000ea6adaa5127fccf0a960d15d81d *gd81-03-23 s1 t03 They Love Each Other.flac
bdadeea018fcf4a6ffbc1b48f7e3698f *gd81-03-23 s1 t04 Cassidy.flac
f11575f27de44b007ae5963bbbfc1f53 *gd81-03-23 s1 t05 It Must Have Been The Roses.flac
00a7f0d0ba313a6adfb7de1b291c8936 *gd81-03-23 s1 t06 El Paso.flac
5433a6fe158c0a31ff69430beb140be6 *gd81-03-23 s1 t07 Ramble On Rose.flac
117202d29029d839d34d72dc4745a7ac *gd81-03-23 s1 t08 New Minglewood Blues.flac
80fd35b0718c931571fc21abd318f44a *gd81-03-23 s1 t09 Sugaree.flac
afd31dbe7d4ecb315438bd871471bc64 *gd81-03-23 s1 t10 Lazy Lightning.flac
b81ed815967f66c80b7092ebd2e8fea3 *gd81-03-23 s1 t11 Supplication.flac
cbaa6030edf2305d6e792ef88b0f907a *gd81-03-23 s2 t01 Bird Song.flac
740b6958803c44cdc75ae2edbd331726 *gd81-03-23 s2 t02 Samson & Delilah.flac
694248e3a313289befc914dfda642039 *gd81-03-23 s2 t03 To Lay Me Down.flac
410196fd4a343208a4191a5013656bff *gd81-03-23 s2 t04 Terrapin Station.flac
cffdabf16ac64803029588eefb563205 *gd81-03-23 s2 t05 Playing In The Band.flac
41a499dd858fb8b0265f5b233c9a2b58 *gd81-03-23 s2 t06 Drums.flac
dd24b9fa57c6ecd838ce332aab158150 *gd81-03-23 s2 t07 The Other One Space.flac
4a1317d10ca439f3f6a37f757510d9e3 *gd81-03-23 s2 t08 The Other One.flac
3a534c97fc54c46b2a38f2d2098af52b *gd81-03-23 s2 t09 Stella Blue.flac
1a1852b85760dce138997f1bec5d6ce1 *gd81-03-23 s2 t10 Sugar Magnolia.flac
6383b5831128cc32a93f10e5563df23e *gd81-03-23 s2 t11 Casey Jones.flac

Comments
Add Comment
Other Sources (comments)
AUD> MC> DAT> CD (1) AUD > MC > C > Nakamishi... (0) flac16; Recording by... (0) flac16; Source Info:... (0)
Date User Comment