Browse Collections Artists Sources   Search Dates

Add Show    List Management    Help


Grateful Dead 03/24/81
Rainbow Theater, London, England
Comments Add Comment    Source Collectors    Add to Collection    Add to Want List    History
Source # 139844 Other Sources
Entered by Matt Vernon
Checksums ffp , flac-md5
Disc Counts 0 / 0
Media Size
Date Circulated
Date Added
11/17/2017
11/17/2017
Source Summary flac16; Source Info: 1st Set: Master Audience Cassette (at the soundboard); Sennheiser 421 > Sony TC-D5M > 1 cassette gen (Maxell UDXLII); 2nd Set: Frank Streeter's Master Audience Cassette (at the soundboard); Sennheiser 421 > Sony TC-D5M (TDK MA90); Transfer Info: 1st Set: 1st generation cassette (Nakamichi CR-7A) > Tascam DA-3000 (DSF 1-bit/5.8 MHz)> KORG AudioGate 4 > Adobe Audition 3.0> TLH flac2496; 2nd Set: Cassette Master (Nakamichi CR-7A) > Tascam DA-3000 (DSF 1-bit/5.8 MHz)> KORG AudioGate 4 > Adobe Audition 3.0> TLH flac2496; Transfer by Charlie Miller; Mastered by Scott Clugston 
  Archive
Source Information - Download Text | Download Zip
Grateful Dead
Rainbow Theatre
London, England
Tuesday March 24, 1981

This is a 16/44 fileset. 24 bit to 16 bit via dBpoweramp

Source Info:
1st Set: Master Audience Cassette(at the soundboard); Sennheiser 421 > Sony TC-D5M > 1 cassette gen (Maxell UDXLII)

2nd Set: Frank Streeter's Master Audience Cassette(at the soundboard); Sennheiser 421 > Sony TC-D5M (TDK MA90)

Transfer Info:
1st Set: 1st generation cassette (Nakamichi CR-7A) > Tascam DA-3000 (DSF 1-bit/5.8 MHz)> KORG AudioGate 4 > Adobe Audition 3.0> TLH flac2496

2nd Set: Cassette Master (Nakamichi CR-7A) > Tascam DA-3000 (DSF 1-bit/5.8 MHz)> KORG AudioGate 4 > Adobe Audition 3.0> TLH flac2496

Transfer by Charlie Miller
Mastered by Scott Clugston
11/16/17

Notes:
- Thanks to Frank Streeter for the source cassettes
- Thanks to Charlie Miller for the transfer
- Thanks to the folks responsible for the shnid10308 sennheiser 406t source which supplies a 0:52 patch from 3:39 thru 4:31 of "Drums"
- Between song transitions smoothed
- Nice Jam out of He's Gone
- Jerry apologizes for false start to "Brokedown Palace"

Set One:
s1 t01. Mississippi Half-Step Uptown Toodeloo ->
s1 t02. Franklin's Tower
s1 t03. Beat It On Down The Line ->
s1 t04. Greatest Story Ever Told
s1 t05. Row Jimmy
s1 t06. Me & My Uncle ->
s1 t07. Big River
s1 t08. High Time ->
s1 t09. Little Red Rooster
s1 t10. China Cat Sunflower ->
s1 t11. I Know You Rider

Set Two:
s2 t01. Shakedown Street
s2 t02. Lost Sailor ->
s2 t03. Saint Of Circumstance ->
s2 t04. He's Gone ->
         Jam ->
s2 t05. Drums ->
s2 t06. Space ->
s2 t07. The Wheel ->
s2 t08. Truckin' ->
s2 t09. Wharf Rat ->
s2 t10. Around & Around ->
s2 t11. Good Lovin'
Encore:
s2 t12. Brokedown Palace



    length     expanded size    cdr  WAVE problems  fmt   ratio  filename
     8:37.36       91283516 B   ---   --   ---xx   flac  0.6588  gd81-03-24 s1 t01 Mississippi Half-Step.flac
    10:45.52      113900348 B   ---   --   ---xx   flac  0.6712  gd81-03-24 s1 t02 Franklin's Tower.flac
     3:06.25       32869244 B   ---   --   ---xx   flac  0.6779  gd81-03-24 s1 t03 Beat It On Down The Line.flac
     4:38.72       49208588 B   ---   --   ---xx   flac  0.6628  gd81-03-24 s1 t04 Greatest Story Ever Told.flac
    12:09.73      128767340 B   ---   --   ---xx   flac  0.6400  gd81-03-24 s1 t05 Row Jimmy.flac
     2:57.51       31342796 B   ---   --   ---xx   flac  0.6756  gd81-03-24 s1 t06 Me & My Uncle.flac
     6:16.72       66495788 B   ---   --   ---xx   flac  0.6708  gd81-03-24 s1 t07 Big River.flac
     8:38.38       91464620 B   ---   --   ---xx   flac  0.6349  gd81-03-24 s1 t08 High Time.flac
    11:02.38      116866220 B   ---   --   ---xx   flac  0.6694  gd81-03-24 s1 t09 Little Red Rooster.flac
     7:21.54       77919452 B   ---   --   ---xx   flac  0.6750  gd81-03-24 s1 t10 China Cat Sunflower.flac
     6:41.70       70901084 B   ---   --   ---xx   flac  0.6841  gd81-03-24 s1 t11 I Know You Rider.flac
    16:38.05      176059004 B   ---   --   ---xx   flac  0.6514  gd81-03-24 s2 t01 Shakedown Street.flac
     6:41.40       70830524 B   ---   --   ---xx   flac  0.6244  gd81-03-24 s2 t02 Lost Sailor.flac
     6:43.34       71169212 B   ---   --   ---xx   flac  0.6776  gd81-03-24 s2 t03 Saint Of Circumstance.flac
    19:37.61      207766316 B   ---   --   ---xx   flac  0.6143  gd81-03-24 s2 t04 He's Gone.flac
     9:27.13      100049420 B   ---   --   ---xx   flac  0.5768  gd81-03-24 s2 t05 Drums.flac
     5:46.23       61088540 B   ---   --   ---xx   flac  0.5538  gd81-03-24 s2 t06 Space.flac
     5:38.00       59623244 B   ---   --   ---xx   flac  0.6441  gd81-03-24 s2 t07 The Wheel.flac
     9:03.51       95905196 B   ---   --   ---xx   flac  0.6512  gd81-03-24 s2 t08 Truckin'.flac
     8:48.47       93249788 B   ---   --   ---xx   flac  0.6223  gd81-03-24 s2 t09 Wharf Rat.flac
     3:56.06       41644556 B   ---   --   ---xx   flac  0.6532  gd81-03-24 s2 t10 Around & Around.flac
     7:43.65       81826124 B   ---   --   ---xx   flac  0.6677  gd81-03-24 s2 t11 Good Lovin'.flac
     6:19.27       66919148 B   ---   --   ---xx   flac  0.6269  gd81-03-24 s2 t12 Brokedown Palace.flac
   188:41.53     1997150068 B                            0.6440  (23 files)

No errors occured.


Show Checksums
ffp
gd81-03-24 s1 t01 Mississippi Half-Step.flac:142d10430f163de8a7ea1488c6ac5f6f
gd81-03-24 s1 t02 Franklin's Tower.flac:4cea46cfde23c3f83f2789b42f58e28e
gd81-03-24 s1 t03 Beat It On Down The Line.flac:6e5a5d8329397fa1131404f7406a0acf
gd81-03-24 s1 t04 Greatest Story Ever Told.flac:17d2c17879e0ddfde5256fc23fbadc32
gd81-03-24 s1 t05 Row Jimmy.flac:d6263f9c22f5a01dd90aad49bc280ce3
gd81-03-24 s1 t06 Me & My Uncle.flac:4891916987649aa0b0225f238d5cb1cf
gd81-03-24 s1 t07 Big River.flac:d08f154e5bde795b33e2a8964a0ae265
gd81-03-24 s1 t08 High Time.flac:292cc5772b6154eec73b9fac75fcdab2
gd81-03-24 s1 t09 Little Red Rooster.flac:0e14470c4513264538141ca90716c444
gd81-03-24 s1 t10 China Cat Sunflower.flac:edc3ff21d5eec0493b8f19374fb24df3
gd81-03-24 s1 t11 I Know You Rider.flac:08e5dcad0b2c79e8eb2986088bcde972
gd81-03-24 s2 t01 Shakedown Street.flac:bd680638a458f3c65861afab217da7dd
gd81-03-24 s2 t02 Lost Sailor.flac:43e87e4291c08ff648c60c05cae7ac5d
gd81-03-24 s2 t03 Saint Of Circumstance.flac:cc73042798c3dab2c18853f33231fda7
gd81-03-24 s2 t04 He's Gone.flac:0d4805732d031aa62f67e436df3ce512
gd81-03-24 s2 t05 Drums.flac:38430ef63301fd59936a34f984729447
gd81-03-24 s2 t06 Space.flac:99a2dd3cc220cfb42433edfcaae8ccd4
gd81-03-24 s2 t07 The Wheel.flac:54c829cb7adff7120410f720c30f55ce
gd81-03-24 s2 t08 Truckin'.flac:4cf9d42567c89afc08de06d3d9c1e8e3
gd81-03-24 s2 t09 Wharf Rat.flac:c884f3ad00cc51d6ee3d727431512e03
gd81-03-24 s2 t10 Around & Around.flac:cf435152aed636bfc904769389c5b04e
gd81-03-24 s2 t11 Good Lovin'.flac:ae2e301e9381d9a5fcc699d4fc7962ad
gd81-03-24 s2 t12 Brokedown Palace.flac:cbc02ecdd74d833ac4b32c28a1df2e63
flac-md5
76b99523908e8436abb24ffc8f839841 *gd81-03-24 s1 t01 Mississippi Half-Step.flac
7f0cf955ce30c7b728fed61c5ff1914e *gd81-03-24 s1 t02 Franklin's Tower.flac
0ba2fcfb6c65b883b380b24453932ac6 *gd81-03-24 s1 t03 Beat It On Down The Line.flac
626d43d20b24fb1018765ebc1a47baef *gd81-03-24 s1 t04 Greatest Story Ever Told.flac
dcfc7fe01c9ceb5d595ce228453b281b *gd81-03-24 s1 t05 Row Jimmy.flac
f0778f427c250fd9bdf55d710d7bfc74 *gd81-03-24 s1 t06 Me & My Uncle.flac
39cc66e0a8a17591e382b3e8aedbacd0 *gd81-03-24 s1 t07 Big River.flac
1ea62a0af69fbb6d9e43c89ef1e9267d *gd81-03-24 s1 t08 High Time.flac
a086b51664b32bfad5dad4916de4ab5d *gd81-03-24 s1 t09 Little Red Rooster.flac
db1488e37ddc31c9aac082d4416f7a78 *gd81-03-24 s1 t10 China Cat Sunflower.flac
70672c7137847e0b7fb7d782e3c51e93 *gd81-03-24 s1 t11 I Know You Rider.flac
e6112dac9bf0acd141649dc61725cb8e *gd81-03-24 s2 t01 Shakedown Street.flac
50265816ff0fde48ebdf965e37017f0b *gd81-03-24 s2 t02 Lost Sailor.flac
5622052ed6626bb52ebb26a1dd1f1790 *gd81-03-24 s2 t03 Saint Of Circumstance.flac
6237a826d20246ff4550d5d2d5642372 *gd81-03-24 s2 t04 He's Gone.flac
bd54b5875a96c58ba3f4e01b2aaba63a *gd81-03-24 s2 t05 Drums.flac
8f02b276698133ee5c632fc1cc2bd738 *gd81-03-24 s2 t06 Space.flac
5d7b0369996b9b65bae23c13abeaa91d *gd81-03-24 s2 t07 The Wheel.flac
c1c3aae4e0fccdd698f0ae4fff7365dc *gd81-03-24 s2 t08 Truckin'.flac
df82f96de9cc3a0916b99979c583cebd *gd81-03-24 s2 t09 Wharf Rat.flac
211e592c60800c0d1f0ba5c610d9b94d *gd81-03-24 s2 t10 Around & Around.flac
8185b5ae62a2152e8081054dab825989 *gd81-03-24 s2 t11 Good Lovin'.flac
1dc4e5247668ba014f6b5b2399ab2013 *gd81-03-24 s2 t12 Brokedown Palace.flac

Comments
Add Comment
Other Sources (comments)
AUD > MC > C > SB!Live > CD... (0) Recording by Frank... (0) flac24; Source Info:... (0)
Date User Comment