Browse Collections Artists Sources   Search Dates

Add Show    List Management    Help


Grateful Dead 03/24/81
Rainbow Theater, London, England
Comments Add Comment    Source Collectors    Add to Collection    Add to Want List    History
Source # 139845 Other Sources
Entered by Matt Vernon
Checksums ffp , flac-md5
Disc Counts 0 / 0
Media Size
Date Circulated
Date Added
11/17/2017
11/17/2017
Source Summary flac24; Source Info: 1st Set: Master Audience Cassette (at the soundboard); Sennheiser 421 > Sony TC-D5M > 1 cassette gen (Maxell UDXLII); 2nd Set: Frank Streeter's Master Audience Cassette (at the soundboard); Sennheiser 421 > Sony TC-D5M (TDK MA90); Transfer Info: 1st Set: 1st generation cassette (Nakamichi CR-7A) > Tascam DA-3000 (DSF 1-bit/5.8 MHz)> KORG AudioGate 4 > Adobe Audition 3.0> TLH flac2496; 2nd Set: Cassette Master (Nakamichi CR-7A) > Tascam DA-3000 (DSF 1-bit/5.8 MHz)> KORG AudioGate 4 > Adobe Audition 3.0> TLH flac2496; Transfer by Charlie Miller; Mastered by Scott Clugston 
  Archive
Source Information - Download Text | Download Zip
Grateful Dead
Rainbow Theatre
London, England
Tuesday March 24, 1981

Source Info:
1st Set: Master Audience Cassette(at the soundboard); Sennheiser 421 > Sony TC-D5M > 1 cassette gen (Maxell UDXLII)

2nd Set: Frank Streeter's Master Audience Cassette(at the soundboard); Sennheiser 421 > Sony TC-D5M (TDK MA90)

Transfer Info:
1st Set: 1st generation cassette (Nakamichi CR-7A) > Tascam DA-3000 (DSF 1-bit/5.8 MHz)> KORG AudioGate 4 > Adobe Audition 3.0> TLH flac2496

2nd Set: Cassette Master (Nakamichi CR-7A) > Tascam DA-3000 (DSF 1-bit/5.8 MHz)> KORG AudioGate 4 > Adobe Audition 3.0> TLH flac2496

Transfer by Charlie Miller
Mastered by Scott Clugston
11/16/17

Notes:
- Thanks to Frank Streeter for the source cassettes
- Thanks to Charlie Miller for the transfer
- Thanks to the folks responsible for the shnid10308 sennheiser 406t source which supplies a 0:52 patch from 3:39 thru 4:31 of "Drums"
- Between song transitions smoothed
- Nice Jam out of He's Gone
- Jerry apologizes for false start to "Brokedown Palace"

Set One:
s1 t01. Mississippi Half-Step Uptown Toodeloo ->
s1 t02. Franklin's Tower
s1 t03. Beat It On Down The Line ->
s1 t04. Greatest Story Ever Told
s1 t05. Row Jimmy
s1 t06. Me & My Uncle ->
s1 t07. Big River
s1 t08. High Time ->
s1 t09. Little Red Rooster
s1 t10. China Cat Sunflower ->
s1 t11. I Know You Rider

Set Two:
s2 t01. Shakedown Street
s2 t02. Lost Sailor ->
s2 t03. Saint Of Circumstance ->
s2 t04. He's Gone ->
         Jam ->
s2 t05. Drums ->
s2 t06. Space ->
s2 t07. The Wheel ->
s2 t08. Truckin' ->
s2 t09. Wharf Rat ->
s2 t10. Around & Around ->
s2 t11. Good Lovin'
Encore:
s2 t12. Brokedown Palace



    length     expanded size    cdr  WAVE problems  fmt   ratio  filename
     8:37.480     298068524 B   cxx   --   ---xx   flac  0.6911  gd81-03-24 s1 t01 Mississippi Half-Step.flac
    10:45.693     371919404 B   cxx   --   ---xx   flac  0.6960  gd81-03-24 s1 t02 Franklin's Tower.flac
     3:06.333     107328044 B   cxx   --   ---xx   flac  0.6986  gd81-03-24 s1 t03 Beat It On Down The Line.flac
     4:38.960     160681004 B   cxx   --   ---xx   flac  0.6940  gd81-03-24 s1 t04 Greatest Story Ever Told.flac
    12:09.973     420464684 B   cxx   --   ---xx   flac  0.6874  gd81-03-24 s1 t05 Row Jimmy.flac
     2:57.680     102343724 B   cxx   --   ---xx   flac  0.6980  gd81-03-24 s1 t06 Me & My Uncle.flac
     6:16.960     217129004 B   cxx   --   ---xx   flac  0.6962  gd81-03-24 s1 t07 Big River.flac
     8:38.507     298659884 B   cxx   --   ---xx   flac  0.6841  gd81-03-24 s1 t08 High Time.flac
    11:02.507     381603884 B   cxx   --   ---xx   flac  0.6960  gd81-03-24 s1 t09 Little Red Rooster.flac
     7:21.720     254430764 B   cxx   --   ---xx   flac  0.6972  gd81-03-24 s1 t10 China Cat Sunflower.flac
     6:41.935     231514688 B   cxx   --   ---xx   flac  0.7008  gd81-03-24 s1 t11 I Know You Rider.flac
    16:38.067     574886444 B   cxx   --   ---xx   flac  0.6944  gd81-03-24 s2 t01 Shakedown Street.flac
     6:41.533     231283244 B   cxx   --   ---xx   flac  0.6834  gd81-03-24 s2 t02 Lost Sailor.flac
     6:43.453     232389164 B   cxx   --   ---xx   flac  0.7022  gd81-03-24 s2 t03 Saint Of Circumstance.flac
    19:37.813     678420524 B   cxx   --   ---xx   flac  0.6781  gd81-03-24 s2 t04 He's Gone.flac
     9:27.173     326691884 B   cxx   --   ---xx   flac  0.6548  gd81-03-24 s2 t05 Drums.flac
     5:46.307     199472684 B   cxx   --   ---xx   flac  0.6581  gd81-03-24 s2 t06 Space.flac
     5:38.000     194688044 B   cxx   --   ---xx   flac  0.6875  gd81-03-24 s2 t07 The Wheel.flac
     9:03.680     313159724 B   cxx   --   ---xx   flac  0.6905  gd81-03-24 s2 t08 Truckin'.flac
     8:48.627     304489004 B   cxx   --   ---xx   flac  0.6801  gd81-03-24 s2 t09 Wharf Rat.flac
     3:56.080     135982124 B   cxx   --   ---xx   flac  0.6913  gd81-03-24 s2 t10 Around & Around.flac
     7:43.867     267187244 B   cxx   --   ---xx   flac  0.6963  gd81-03-24 s2 t11 Good Lovin'.flac
     6:19.357     218509922 B   cxx   --   ---xx   flac  0.6893  gd81-03-24 s2 t12 Brokedown Palace.flac
   188:41.706    6521303614 B                            0.6879  (23 files)

No errors occured.


Show Checksums
ffp
gd81-03-24 s1 t01 Mississippi Half-Step.flac:a0e25e783466e43876f2104f7b2f3cc1
gd81-03-24 s1 t02 Franklin's Tower.flac:9586e2fda10560de12a4149d1f9ced9f
gd81-03-24 s1 t03 Beat It On Down The Line.flac:cbe60d751c422ca2469286b907be3962
gd81-03-24 s1 t04 Greatest Story Ever Told.flac:3007061b821bb611e976ce47c161aed2
gd81-03-24 s1 t05 Row Jimmy.flac:1e4fd097298ef35791ba5dc8cf562dd3
gd81-03-24 s1 t06 Me & My Uncle.flac:a7c5b387b926695807eed964d580685e
gd81-03-24 s1 t07 Big River.flac:b7266297775efd223837f1858b7237f2
gd81-03-24 s1 t08 High Time.flac:7572dc6eccaf35e2e351542456f15429
gd81-03-24 s1 t09 Little Red Rooster.flac:2d4f82d6dd30d91482853cc371e7c5d5
gd81-03-24 s1 t10 China Cat Sunflower.flac:ee6627f8b29516c0d4198dba46d9243f
gd81-03-24 s1 t11 I Know You Rider.flac:f6682ae25484bb46bbdb585e544d64a6
gd81-03-24 s2 t01 Shakedown Street.flac:16b62a83b350997bd65f2990c1e31016
gd81-03-24 s2 t02 Lost Sailor.flac:e620359145c31005ef00c761b9d34bb5
gd81-03-24 s2 t03 Saint Of Circumstance.flac:6ff78048e97310dd5c211299c26deb12
gd81-03-24 s2 t04 He's Gone.flac:68f5f32b3e7a128ffd56c42cbc491140
gd81-03-24 s2 t05 Drums.flac:0baebdbda5b06e162ca94182950c386a
gd81-03-24 s2 t06 Space.flac:1a64b627b1da6186679f8c64329ce63c
gd81-03-24 s2 t07 The Wheel.flac:9474711568109b69ad7b5da5779149c7
gd81-03-24 s2 t08 Truckin'.flac:d0e3e975422d9912f99c2f9e27b9dcc7
gd81-03-24 s2 t09 Wharf Rat.flac:48a956bf71ed21e364357b3a9b6e8dc3
gd81-03-24 s2 t10 Around & Around.flac:b007d000c4af8419f8c684cc46ca6613
gd81-03-24 s2 t11 Good Lovin'.flac:6b043880c5211270ceb6357ad342a7bb
gd81-03-24 s2 t12 Brokedown Palace.flac:023e66320b4a37461a269d7d9d358e8d
flac-md5
fc526c96cbe3e574d234fd165d99b416 *gd81-03-24 s1 t01 Mississippi Half-Step.flac
2e02636ab1803d0653b5fc1dc9aa8ace *gd81-03-24 s1 t02 Franklin's Tower.flac
e72d8d5abf6f70f475d2c323cddab3bb *gd81-03-24 s1 t03 Beat It On Down The Line.flac
72bf9eb680903e5aa7ec322e8e8dbfd0 *gd81-03-24 s1 t04 Greatest Story Ever Told.flac
ef4fe6faa9e63db81c688eb6cbeb9260 *gd81-03-24 s1 t05 Row Jimmy.flac
928df07c2c86052deaae1ed3948e103e *gd81-03-24 s1 t06 Me & My Uncle.flac
3fd7b14f7504854cdf4b21fc1dbda7d4 *gd81-03-24 s1 t07 Big River.flac
7c05b0a776305cbe918a2388115656f2 *gd81-03-24 s1 t08 High Time.flac
a351c1790c1db1f3265c70f412c6fae8 *gd81-03-24 s1 t09 Little Red Rooster.flac
ecd8288f72a53855b46c96d7e987c57e *gd81-03-24 s1 t10 China Cat Sunflower.flac
6dd439523e2ca9569458309f342b7b7b *gd81-03-24 s1 t11 I Know You Rider.flac
e5a1266f5dce3cd7fe07b58955c4afc3 *gd81-03-24 s2 t01 Shakedown Street.flac
25cc570da06b7b4623b67e28274f376a *gd81-03-24 s2 t02 Lost Sailor.flac
58f846aa20a815a98afb217efd88cddb *gd81-03-24 s2 t03 Saint Of Circumstance.flac
ecf1de2e755524da71edd01fed20b29a *gd81-03-24 s2 t04 He's Gone.flac
d63cb180265a366d2e88d710beb83e20 *gd81-03-24 s2 t05 Drums.flac
deeb62485da1ebcbc819b94e1442a58d *gd81-03-24 s2 t06 Space.flac
213866f2eaf5eaa07c74d67ae230d746 *gd81-03-24 s2 t07 The Wheel.flac
db7fd4ace724477209139136c477e575 *gd81-03-24 s2 t08 Truckin'.flac
3560bb02fb930567fedcede85ca2fac3 *gd81-03-24 s2 t09 Wharf Rat.flac
dca489696064ede47df49974747b2728 *gd81-03-24 s2 t10 Around & Around.flac
838a84752264d65b1ef5ad8dc4e096ca *gd81-03-24 s2 t11 Good Lovin'.flac
c2fcf7fdefbac7d32e9eda01b2116a7c *gd81-03-24 s2 t12 Brokedown Palace.flac

Comments
Add Comment
Other Sources (comments)
AUD > MC > C > SB!Live > CD... (0) Recording by Frank... (0) flac16; Source Info:... (0)
Date User Comment