Browse Collections Artists Sources   Search Dates

Add Show    List Management    Help


Grateful Dead 05/12/81
Veterans' Memorial Coliseum, New Haven, CT
Comments Add Comment    Source Collectors    Add to Collection    Add to Want List    History
Source # 139954 Other Sources
Entered by Matt Vernon
Checksums ffp , flac-md5
Disc Counts 0 / 0
Media Size
Date Circulated
Date Added
05/19/2017
11/19/2017
Source Summary flac24; Source Info: Frank Streeter's Master FOB Audience Cassette; Nakamichi CM700 mics > Sony TC-D5M (TDK MA90); Transfer Info: Cassette Master (Nakamichi CR-7A) > Tascam DA-3000 (DSF 1-bit/5.8 MHz)> KORG AudioGate 4 > Adobe Audition 3.0> TLH flac2496 
  Archive
Source Information - Download Text | Download Zip
Grateful Dead
Veterans' Memorial Coliseum
New Haven, CT
Tuesday May 12, 1981

Source Info:
Frank Streeter's Master FOB Audience Cassette; Nakamichi CM700 mics > Sony TC-D5M (TDK MA90)

Transfer Info:
Cassette Master (Nakamichi CR-7A) > Tascam DA-3000 (DSF 1-bit/5.8 MHz)> KORG AudioGate 4 > Adobe Audition 3.0> TLH flac2496

Notes:
- Thanks to Frank Streeter for the master recording
- Thanks to Charlie Miller for the transfer
- Thanks to the folks responsible for the shnid101924 nak300 source which supplies "Shakedown Street", "Looks Like Rain", "Ship Of Fools" and the first 7:56 of "Estimated Prophet", as well as a 1:10 patch in the transition between "Drums" and "Space"
- Frank's master tape with the beginning of the 2nd set broke when attempting to transfer
- Between song transitions smoothed
- "He's Gone" dedicated to Bob Marley

Transfer by Charlie Miller
Mastered by Scott Clugston
11/18/17

Set One:
s1 t01. Crowd / Tuning
s1 t02. Alabama Getaway ->
s1 t03. Greatest Story Ever Told
s1 t04. Peggy O ->
s1 t05. Cassidy
s1 t06. It Must Have Been The Roses
s1 t07. Me & My Uncle ->
s1 t08. Big River
s1 t09. Althea
s1 t10. Little Red Rooster
s1 t11. China Cat Sunflower ->
s1 t12. I Know You Rider

Set Two:
s2 t01. Crowd /Tuning
s2 t02. Shakedown Street ->
s2 t03. Looks Like Rain
s2 t04. Ship Of Fools
s2 t05. Estimated Prophet ->
s2 t06. He's Gone ->
         Jam ->
s2 t07. Drums ->
s2 t08. Space ->
s2 t09. The Other One Space ->
s2 t10. The Other One ->
s2 t11. Wharf Rat ->
s2 t12. Sugar Magnolia
Encore:
s2 t13. Don't Ease Me In



     length     expanded size    cdr  WAVE problems  fmt   ratio  filename
     1:02.560      36034604 B   cxx   --   ---xx   flac  0.6657  gd81-05-12 s1 t01 Crowd_Tuning.flac
     4:44.413     163822124 B   cxx   --   ---xx   flac  0.6981  gd81-05-12 s1 t02 Alabama Getaway.flac
     3:59.520     137963564 B   cxx   --   ---xx   flac  0.6970  gd81-05-12 s1 t03 Greatest Story Ever Told.flac
     6:36.480     228372524 B   cxx   --   ---xx   flac  0.6863  gd81-05-12 s1 t04 Peggy O.flac
     4:57.080     171118124 B   cxx   --   ---xx   flac  0.6953  gd81-05-12 s1 t05 Cassidy.flac
     6:56.280     239777324 B   cxx   --   ---xx   flac  0.6891  gd81-05-12 s1 t06 It Must Have Been The Roses.flac
     2:52.547      99386924 B   cxx   --   ---xx   flac  0.6945  gd81-05-12 s1 t07 Me & My Uncle.flac
     5:39.480     195540524 B   cxx   --   ---xx   flac  0.6946  gd81-05-12 s1 t08 Big River.flac
     8:08.413     281326124 B   cxx   --   ---xx   flac  0.6898  gd81-05-12 s1 t09 Althea.flac
     9:01.413     311854124 B   cxx   --   ---xx   flac  0.6944  gd81-05-12 s1 t10 Little Red Rooster.flac
     5:46.147     199380524 B   cxx   --   ---xx   flac  0.6938  gd81-05-12 s1 t11 China Cat Sunflower.flac
     5:53.229     203459996 B   cxx   --   ---xx   flac  0.7012  gd81-05-12 s1 t12 I Know You Rider.flac
     1:09.040      39767084 B   cxx   --   ---xx   flac  0.5226  gd81-05-12 s2 t01 Crowd_Tuning.flac
    12:05.227     417730604 B   cxx   --   ---xx   flac  0.5874  gd81-05-12 s2 t02 Shakedown Street.flac
    10:01.133     346252844 B   cxx   --   ---xx   flac  0.5603  gd81-05-12 s2 t03 Looks Like Rain.flac
     7:40.627     265321004 B   cxx   --   ---xx   flac  0.5679  gd81-05-12 s2 t04 Ship Of Fools.flac
    11:18.240     390666284 B   cxx   --   ---xx   flac  0.6127  gd81-05-12 s2 t05 Estimated Prophet.flac
    17:44.107     612925484 B   cxx   --   ---xx   flac  0.5983  gd81-05-12 s2 t06 He's Gone.flac
    10:01.067     346214444 B   cxx   --   ---xx   flac  0.6660  gd81-05-12 s2 t07 Drums.flac
     4:03.147     140052524 B   cxx   --   ---xx   flac  0.6507  gd81-05-12 s2 t08 Space.flac
     2:08.533      74035244 B   cxx   --   ---xx   flac  0.6848  gd81-05-12 s2 t09 The Other One Space.flac
     4:29.467     155212844 B   cxx   --   ---xx   flac  0.6979  gd81-05-12 s2 t10 The Other One.flac
     9:43.120     335877164 B   cxx   --   ---xx   flac  0.6845  gd81-05-12 s2 t11 Wharf Rat.flac
     8:20.693     288399404 B   cxx   --   ---xx   flac  0.6994  gd81-05-12 s2 t12 Sugar Magnolia.flac
     3:20.635     115565960 B   cxx   --   ---xx   flac  0.6910  gd81-05-12 s2 t13 Don't Ease Me In.flac
   167:42.598    5796057368 B                            0.6523  (25 files)

No errors occured.


Show Checksums
ffp
gd81-05-12 s1 t01 Crowd_Tuning.flac:bcd7fadb92345ec1c17fb8c5b3ecb4ba
gd81-05-12 s1 t02 Alabama Getaway.flac:11730e08798833f7ebc4a374f4b54f82
gd81-05-12 s1 t03 Greatest Story Ever Told.flac:596cf2eb2cde301caf8a07b9e2dc893e
gd81-05-12 s1 t04 Peggy O.flac:46b36c0748ec8d80a04bc831240aac33
gd81-05-12 s1 t05 Cassidy.flac:0d5db58e098f5116ad8319c1929b94e3
gd81-05-12 s1 t06 It Must Have Been The Roses.flac:dca3caf0302f3a6bdd82ffeb4ea9dde2
gd81-05-12 s1 t07 Me & My Uncle.flac:162cab53e4f57ed19ef4515a928ad1c2
gd81-05-12 s1 t08 Big River.flac:d7b1d7eb070f4aea11d425cf0e3450c9
gd81-05-12 s1 t09 Althea.flac:af82b4912ba0ae0211e542b3e928bfec
gd81-05-12 s1 t10 Little Red Rooster.flac:c1b2e834917ac589879cfde2274b3cb5
gd81-05-12 s1 t11 China Cat Sunflower.flac:59637aa001b4cddbcfdc379164eb7d4b
gd81-05-12 s1 t12 I Know You Rider.flac:dab08a89c15346aaa2294a4fbd4eee5a
gd81-05-12 s2 t01 Crowd_Tuning.flac:9cbbfb92a0f9b3f962ea475bdbd35f5b
gd81-05-12 s2 t02 Shakedown Street.flac:dfc27559bd99bc29ce55a76f8a1df657
gd81-05-12 s2 t03 Looks Like Rain.flac:7222d23e3c91d9673cbe02b69ed1eb9f
gd81-05-12 s2 t04 Ship Of Fools.flac:16dc68fa1ad7932967e283b9b63d4142
gd81-05-12 s2 t05 Estimated Prophet.flac:1f7a8e4b86d5cda2ffe3d8a72bf5361e
gd81-05-12 s2 t06 He's Gone.flac:565f26abe1f9ea4bd77393c3356739fb
gd81-05-12 s2 t07 Drums.flac:c27c83799488f58814ffc452def3c7b9
gd81-05-12 s2 t08 Space.flac:1b8c08937a4bdebe054cb0f6d5302172
gd81-05-12 s2 t09 The Other One Space.flac:48e0810b389c995d8ec658e3623ebd42
gd81-05-12 s2 t10 The Other One.flac:1d59ae729463ed47d8f7e7622a797cfc
gd81-05-12 s2 t11 Wharf Rat.flac:f184b5f15ae812a6c74951de9618b3a3
gd81-05-12 s2 t12 Sugar Magnolia.flac:35e8440f9fb49bb58748c5475a67287a
gd81-05-12 s2 t13 Don't Ease Me In.flac:e3cbb3558db6b854ea56f2c556b2a920
flac-md5
51f74f0200069afd38e29c1329c60df4 *gd81-05-12 s1 t01 Crowd_Tuning.flac
395467461344df734b958843f032c793 *gd81-05-12 s1 t02 Alabama Getaway.flac
4991d8ac58be3dac2cfd4ccfa73f13db *gd81-05-12 s1 t03 Greatest Story Ever Told.flac
98d04967c178bc385dba7b9080b62695 *gd81-05-12 s1 t04 Peggy O.flac
6756f203f7a78e10e71959ef92b2c2b8 *gd81-05-12 s1 t05 Cassidy.flac
fca47440fca814e59fa7d83c1c7f1d9f *gd81-05-12 s1 t06 It Must Have Been The Roses.flac
faa3f9e26865e124b2ad41aeebaab8de *gd81-05-12 s1 t07 Me & My Uncle.flac
90ebe7eb47294ad834a2ddc071f81290 *gd81-05-12 s1 t08 Big River.flac
6a0da7a30a7ce538f5ce55b522633ccf *gd81-05-12 s1 t09 Althea.flac
e7c062160848f45e30addcb7ed63cf75 *gd81-05-12 s1 t10 Little Red Rooster.flac
24a12e93ae6cc99bc025ae2759b9d36d *gd81-05-12 s1 t11 China Cat Sunflower.flac
0e4e32209ef05fc523ebf01a7850231a *gd81-05-12 s1 t12 I Know You Rider.flac
964df95b2f34101f73218f7a18e6f3a4 *gd81-05-12 s2 t01 Crowd_Tuning.flac
d8673d87980979e0d38befe68b83a491 *gd81-05-12 s2 t02 Shakedown Street.flac
33f6686d735bef442c1b3a26b67f43a0 *gd81-05-12 s2 t03 Looks Like Rain.flac
309b6cfc53e568ac7678127fc820f597 *gd81-05-12 s2 t04 Ship Of Fools.flac
7831c30f7affadbd71409bd384a30575 *gd81-05-12 s2 t05 Estimated Prophet.flac
11dd6040d094845dff6bd47a83fb2014 *gd81-05-12 s2 t06 He's Gone.flac
f88c5f90e7a525d11c0e52df3177978b *gd81-05-12 s2 t07 Drums.flac
4c903d897428489d9c3d35e4837f2115 *gd81-05-12 s2 t08 Space.flac
fe1922e302484f150e27e77b60cfef40 *gd81-05-12 s2 t09 The Other One Space.flac
e2b6792d64a39820c4137671f3699ce6 *gd81-05-12 s2 t10 The Other One.flac
4cc0b3196fbab61ec803ed62d9e389c2 *gd81-05-12 s2 t11 Wharf Rat.flac
0f0cc88032cffcad0eff94408b55f101 *gd81-05-12 s2 t12 Sugar Magnolia.flac
77af1695db57b57962795bae184bc571 *gd81-05-12 s2 t13 Don't Ease Me In.flac

Comments
Add Comment
Other Sources (comments)
SBD> Master Cassette>... (9) essentially same as (3) flac16; Set 1... (0) flac16; Matrix by... (1) flac24; AUD: 3x... (1) flac16; AUD: 3x... (1) flac16; Updated... (1) flac16; Recording... (0) flac16; source: aud... (0) flac24; source: aud... (0) flac16; Source Info:... (0)
Date User Comment