Browse Collections Artists Sources   Search Dates

Add Show    List Management    Help


Grateful Dead 05/13/81
Providence Civic Center, Providence, RI
Comments Add Comment    Source Collectors    Add to Collection    Add to Want List    History
Source # 139955 Other Sources
Entered by Matt Vernon
Checksums ffp , flac-md5
Disc Counts 0 / 0
Media Size
Date Circulated
Date Added
11/19/2017
11/19/2017
Source Summary flac16; Source Info: Frank Streeter's Master FOB Audience Cassette; Sennheiser 421 mics > Sony TC-D5M (TDK MA90); Transfer Info: Cassette Master (Nakamichi CR-7A) > Tascam DA-3000 (DSF 1-bit/5.8 MHz)> KORG AudioGate 4 > Adobe Audition 3.0> TLH flac2496 
  Archive
Source Information - Download Text | Download Zip
Grateful Dead
Civic Center
Providence, RI
Wednesday May 13, 1981

This is a 16/44 fileset. 24 bit to 16 bit via dBpoweramp

Source Info:
Frank Streeter's Master FOB Audience Cassette; Sennheiser 421 mics > Sony TC-D5M (TDK MA90)

Transfer Info:
Cassette Master (Nakamichi CR-7A) > Tascam DA-3000 (DSF 1-bit/5.8 MHz)> KORG AudioGate 4 > Adobe Audition 3.0> TLH flac2496

Notes:
- Thanks to Frank Streeter for the master recording
- Thanks to Charlie Miller for the transfer
- Thanks to the folks responsible for the shnid102180 nak300 source which supplies a 1:04 patch in the transition from "Drums" to "Space"
- Between song transitions smoothed
- Sounds like Frank moved closer for 2nd set

Transfer by Charlie Miller
Mastered by Scott Clugston
11/17/17

Set One:
s1 t01. Crowd / Tuning
s1 t02. Jack Straw
s1 t03. Crowd / Tuning
s1 t04. Tennessee Jed
s1 t05. CC Rider
s1 t06. Friend Of The Devil
s1 t07. Mama Tried ->
s1 t08. Mexicali Blues
s1 t09. Bird Song ->
s1 t10. Let It Grow ->
s1 t11. Deal

Set Two:
s2 t01. Crowd /Tuning
s2 t02. Samson & Delilah
s2 t03. Terrapin Station ->
s2 t04. Lost Sailor ->
s2 t05. Saint Of Circumstance ->
s2 t06. Drums ->
s2 t07. Space ->
s2 t08. Aiko Aiko ->
s2 t09. I Need A Miracle ->
s2 t10. Stella Blue ->
s2 t11. Good Lovin'
Encore:
s2 t12. Brokedown Palace



     length     expanded size    cdr  WAVE problems  fmt   ratio  filename
     1:22.60       14605964 B   ---   --   ---xx   flac  0.6082  gd81-05-13 s1 t01 Crowd_Tuning.flac
     5:18.12       56123468 B   ---   --   ---xx   flac  0.6689  gd81-05-13 s1 t02 Jack Straw.flac
     1:46.64       18848972 B   ---   --   ---xx   flac  0.5860  gd81-05-13 s1 t03 Crowd_Tuning.flac
     8:11.41       86708876 B   ---   --   ---xx   flac  0.6501  gd81-05-13 s1 t04 Tennessee Jed.flac
     8:17.09       87692012 B   ---   --   ---xx   flac  0.6539  gd81-05-13 s1 t05 CC Rider.flac
     9:14.20       97772684 B   ---   --   ---xx   flac  0.6523  gd81-05-13 s1 t06 Friend Of The Devil.flac
     2:27.06       25944956 B   ---   --   ---xx   flac  0.6634  gd81-05-13 s1 t07 Mama Tried.flac
     5:16.69       55904732 B   ---   --   ---xx   flac  0.6524  gd81-05-13 s1 t08 Mexicali Blues.flac
     8:41.52       92026748 B   ---   --   ---xx   flac  0.6373  gd81-05-13 s1 t09. Bird Song.flac
    10:38.73      112714940 B   ---   --   ---xx   flac  0.6613  gd81-05-13 s1 t10 Let It Grow.flac
     7:52.60       83401964 B   ---   --   ---xx   flac  0.6720  gd81-05-13 s1 t11 Deal.flac
     0:54.32        9600908 B   ---   --   ---xx   flac  0.5837  gd81-05-13 s2 t01Crowd_Tuning.flac
     7:08.14       75532172 B   ---   --   ---xx   flac  0.6690  gd81-05-13 s2 t02 Samson & Delilah.flac
    13:26.64      142328972 B   ---   --   ---xx   flac  0.6424  gd81-05-13 s2 t03 Terrapin Station.flac
     7:06.49       75261692 B   ---   --   ---xx   flac  0.6327  gd81-05-13 s2 t04 Lost Sailor.flac
     6:40.58       70696460 B   ---   --   ---xx   flac  0.6771  gd81-05-13 s2 t05 Saint Of Circumstance.flac
     9:17.22       98306588 B   ---   --   ---xx   flac  0.6229  gd81-05-13 s2 t06 Drums.flac
     4:30.32       47703308 B   ---   --   ---xx   flac  0.5504  gd81-05-13 s2 t07 Space.flac
     7:03.09       74638412 B   ---   --   ---xx   flac  0.6518  gd81-05-13 s2 t08 Aiko Aiko.flac
     3:56.63       41778620 B   ---   --   ---xx   flac  0.6627  gd81-05-13 s2 t09 I Need A Miracle.flac
    10:22.12      109749068 B   ---   --   ---xx   flac  0.6134  gd81-05-13 s2 t10 Stella Blue.flac
     7:44.21       81899036 B   ---   --   ---xx   flac  0.6730  gd81-05-13 s2 t11 Good Lovin'.flac
     5:45.21       60907436 B   ---   --   ---xx   flac  0.6127  gd81-05-13 s2 t12 Brokedown Palace.flac
   153:04.38     1620147988 B                            0.6447  (23 files)

No errors occured.


Show Checksums
ffp
gd81-05-13 s1 t01 Crowd_Tuning.flac:b69b842bb2551d4307ea44c0b6080cd2
gd81-05-13 s1 t02 Jack Straw.flac:8856c0c4234cb232b2ba5139a0bab1d2
gd81-05-13 s1 t03 Crowd_Tuning.flac:04e7a0a622f383301f8973fb8e91980d
gd81-05-13 s1 t04 Tennessee Jed.flac:495e8c73c062172e4d151f7eb05881b1
gd81-05-13 s1 t05 CC Rider.flac:b800d662aafb5b76612c17d9fe844d8d
gd81-05-13 s1 t06 Friend Of The Devil.flac:1764bbd1a9d77ae818e610b9864715ae
gd81-05-13 s1 t07 Mama Tried.flac:901c7bff129e461168e9f7867d3921c3
gd81-05-13 s1 t08 Mexicali Blues.flac:bd53f55bf7f4e1ba0283a16e23fc22e5
gd81-05-13 s1 t09. Bird Song.flac:fb6b2ba50ab23f25e1f94c37c549cb97
gd81-05-13 s1 t10 Let It Grow.flac:d8af5e8623f27e4e3e35ccbd3e99778a
gd81-05-13 s1 t11 Deal.flac:f4b5e2520ee6d3b01f4c2ab4d1617df7
gd81-05-13 s2 t01Crowd_Tuning.flac:23e02fd2b01981375b75cd831b3b995b
gd81-05-13 s2 t02 Samson & Delilah.flac:8bb9dff6c5d647d08544046b4820ba1c
gd81-05-13 s2 t03 Terrapin Station.flac:70a613a27a5aac6f0a60e28581917d97
gd81-05-13 s2 t04 Lost Sailor.flac:fed489fdac75804dd23569d28aa7744d
gd81-05-13 s2 t05 Saint Of Circumstance.flac:0304eff2e2c95c4b528017bad67a00fc
gd81-05-13 s2 t06 Drums.flac:646917d4e80f3986a46c159832958f88
gd81-05-13 s2 t07 Space.flac:caffe7f6bbdf0ceff2603d0ae6d9f4a8
gd81-05-13 s2 t08 Aiko Aiko.flac:f81ebe7e8ddc6e6a6853ba129cc6ef4a
gd81-05-13 s2 t09 I Need A Miracle.flac:a5a323374fe7607b74c80ce65dd97b9a
gd81-05-13 s2 t10 Stella Blue.flac:5df44e28c4537fa7c4f8ab60c9adeaed
gd81-05-13 s2 t11 Good Lovin'.flac:1fcd6e712d40a4eabb39a42308c1bbd7
gd81-05-13 s2 t12 Brokedown Palace.flac:5a745b6fd239ea0ca1cc9b1940fd81c4
flac-md5
d8f6d2808952ca88416ed816ab6d6765 *gd81-05-13 s1 t01 Crowd_Tuning.flac
fb7a85e816cfcf996d4f691ea7dac0ca *gd81-05-13 s1 t02 Jack Straw.flac
d76b478cc3ef4b7b2739516467c932d6 *gd81-05-13 s1 t03 Crowd_Tuning.flac
8e0fcfc21804d302f74020a5bf05ad58 *gd81-05-13 s1 t04 Tennessee Jed.flac
8cab61210bf38d977b796e6fdabc1596 *gd81-05-13 s1 t05 CC Rider.flac
1c83a1d6dc49a1414dd9fc0c30e2d514 *gd81-05-13 s1 t06 Friend Of The Devil.flac
82086729743cb1c033edcd1c1d1b7320 *gd81-05-13 s1 t07 Mama Tried.flac
ae7cd9ab30a027002060dfd332597c56 *gd81-05-13 s1 t08 Mexicali Blues.flac
cae7b85e9d07be3dda5dc993d718184d *gd81-05-13 s1 t09. Bird Song.flac
38b4528b5469234df7ed81734e6941d8 *gd81-05-13 s1 t10 Let It Grow.flac
73420b978c332328164b44562605883f *gd81-05-13 s1 t11 Deal.flac
2544f9a8f8b1be4ca3884f9ec5b44b6d *gd81-05-13 s1 t11 Deal.pk
812777d29dddf785dc1be60bccce31c0 *gd81-05-13 s2 t01Crowd_Tuning.flac
f6616a01b3ae120fda1d8f36ceeb9972 *gd81-05-13 s2 t02 Samson & Delilah.flac
f9e8a2d0a75a754f9d6444fb3e9d63d5 *gd81-05-13 s2 t03 Terrapin Station.flac
154daa5ef64b6b790e0bec9abf00eeba *gd81-05-13 s2 t04 Lost Sailor.flac
61cfa9beb92c15bc5c2892c3390ebb8a *gd81-05-13 s2 t05 Saint Of Circumstance.flac
e1e48c2d5b2100892f8986a459483cf9 *gd81-05-13 s2 t06 Drums.flac
13e11b76c93513bb661a301d6109ddd7 *gd81-05-13 s2 t07 Space.flac
8edd173fa42b9d1498c35c0673efaa0c *gd81-05-13 s2 t08 Aiko Aiko.flac
1e53824e589412a12443348043939580 *gd81-05-13 s2 t09 I Need A Miracle.flac
b0ebabefaed9b170a583ae373684d1a0 *gd81-05-13 s2 t10 Stella Blue.flac
2ebe7aedc952f7df2607af010a179231 *gd81-05-13 s2 t11 Good Lovin'.flac
855fe8f83922eb0e47d9451206009748 *gd81-05-13 s2 t12 Brokedown Palace.flac

Comments
Add Comment
Other Sources (comments)
Nak 300's>MC>DAT>CDR;... (2) flac16; Recording... (0) flac16; Matrix 3... (0) DTS Audio 5.1 - SBD... (0) DVD-VA; (Video... (0) flac24; AUD: 3x... (1) flac16; AUD: 3x... (1) flac16; lineage: nak... (0) flac24; source: aud... (0) flac16; source: aud... (0) flac24; Source Info:... (0)
Date User Comment