Browse Collections Artists Sources   Search Dates

Add Show    List Management    Help


Grateful Dead 05/13/81
Providence Civic Center, Providence, RI
Comments Add Comment    Source Collectors    Add to Collection    Add to Want List    History
Source # 139957 Other Sources
Entered by Matt Vernon
Checksums flac-md5 , ffp
Disc Counts 0 / 0
Media Size
Date Circulated
Date Added
11/19/2017
11/19/2017
Source Summary flac24; Source Info: Frank Streeter's Master FOB Audience Cassette; Sennheiser 421 mics > Sony TC-D5M (TDK MA90); Transfer Info: Cassette Master (Nakamichi CR-7A) > Tascam DA-3000 (DSF 1-bit/5.8 MHz)> KORG AudioGate 4 > Adobe Audition 3.0> TLH flac2496 
  Archive
Source Information - Download Text | Download Zip
Grateful Dead
Civic Center
Providence, RI
Wednesday May 13, 1981

Source Info:
Frank Streeter's Master FOB Audience Cassette; Sennheiser 421 mics > Sony TC-D5M (TDK MA90)

Transfer Info:
Cassette Master (Nakamichi CR-7A) > Tascam DA-3000 (DSF 1-bit/5.8 MHz)> KORG AudioGate 4 > Adobe Audition 3.0> TLH flac2496

Notes:
- Thanks to Frank Streeter for the master recording
- Thanks to Charlie Miller for the transfer
- Thanks to the folks responsible for the shnid102180 nak300 source which supplies a 1:04 patch in the transition from "Drums" to "Space"
- Between song transitions smoothed
- Sounds like Frank moved closer for 2nd set

Transfer by Charlie Miller
Mastered by Scott Clugston
11/17/17

Set One:
s1 t01. Crowd / Tuning
s1 t02. Jack Straw
s1 t03. Crowd / Tuning
s1 t04. Tennessee Jed
s1 t05. CC Rider
s1 t06. Friend Of The Devil
s1 t07. Mama Tried ->
s1 t08. Mexicali Blues
s1 t09. Bird Song ->
s1 t10. Let It Grow ->
s1 t11. Deal

Set Two:
s2 t01. Crowd /Tuning
s2 t02. Samson & Delilah
s2 t03. Terrapin Station ->
s2 t04. Lost Sailor ->
s2 t05. Saint Of Circumstance ->
s2 t06. Drums ->
s2 t07. Space ->
s2 t08. Aiko Aiko ->
s2 t09. I Need A Miracle ->
s2 t10. Stella Blue ->
s2 t11. Good Lovin'
Encore:
s2 t12. Brokedown Palace



   length     expanded size    cdr  WAVE problems  fmt   ratio  filename
    1:22.800      47692844 B   cxx   --   ---xx   flac  0.6711  gd81-05-13 s1 t01 Crowd_Tuning.flac
    5:18.160     183260204 B   cxx   --   ---xx   flac  0.7000  gd81-05-13 s1 t02 Jack Straw.flac
    1:46.853      61547564 B   cxx   --   ---xx   flac  0.6717  gd81-05-13 s1 t03 Crowd_Tuning.flac
    8:11.547     283130924 B   cxx   --   ---xx   flac  0.6928  gd81-05-13 s1 t04 Tennessee Jed.flac
    8:17.120     286341164 B   cxx   --   ---xx   flac  0.6955  gd81-05-13 s1 t05 CC Rider.flac
    9:14.267     319257644 B   cxx   --   ---xx   flac  0.6931  gd81-05-13 s1 t06 Friend Of The Devil.flac
    2:27.080      84718124 B   cxx   --   ---xx   flac  0.6970  gd81-05-13 s1 t07 Mama Tried.flac
    5:16.920     182545964 B   cxx   --   ---xx   flac  0.6929  gd81-05-13 s1 t08 Mexicali Blues.flac
    8:41.693     300495404 B   cxx   --   ---xx   flac  0.6873  gd81-05-13 s1 t09. Bird Song.flac
   10:38.973     368048684 B   cxx   --   ---xx   flac  0.6962  gd81-05-13 s1 t10 Let It Grow.flac
    7:52.803     272334398 B   cxx   --   ---xx   flac  0.7003  gd81-05-13 s1 t11 Deal.flac
    0:54.427      31349804 B   cxx   --   ---xx   flac  0.6657  gd81-05-13 s2 t01 Crowd_Tuning.flac
    7:08.187     246635564 B   cxx   --   ---xx   flac  0.6989  gd81-05-13 s2 t02 Samson & Delilah.flac
   13:26.853     464747564 B   cxx   --   ---xx   flac  0.6885  gd81-05-13 s2 t03 Terrapin Station.flac
    7:06.653     245752364 B   cxx   --   ---xx   flac  0.6845  gd81-05-13 s2 t04 Lost Sailor.flac
    6:40.773     230845484 B   cxx   --   ---xx   flac  0.7012  gd81-05-13 s2 t05 Saint Of Circumstance.flac
    9:17.293     321001004 B   cxx   --   ---xx   flac  0.6791  gd81-05-13 s2 t06 Drums.flac
    4:30.427     155765804 B   cxx   --   ---xx   flac  0.6380  gd81-05-13 s2 t07 Space.flac
    7:03.120     243717164 B   cxx   --   ---xx   flac  0.6889  gd81-05-13 s2 t08 Aiko Aiko.flac
    3:56.840     136419884 B   cxx   --   ---xx   flac  0.6945  gd81-05-13 s2 t09 I Need A Miracle.flac
   10:22.160     358364204 B   cxx   --   ---xx   flac  0.6772  gd81-05-13 s2 t10 Stella Blue.flac
    7:44.280     267425324 B   cxx   --   ---xx   flac  0.6988  gd81-05-13 s2 t11 Good Lovin'.flac
    5:45.267     198874028 B   cxx   --   ---xx   flac  0.6752  gd81-05-13 s2 t12 Brokedown Palace.flac
  153:04.497    5290271110 B                            0.6889  (23 files)

Show Checksums
flac-md5
1fcee9e0b4adedcf84e816f1532a51e6 *gd81-05-13 s1 t01 Crowd_Tuning.flac
57b2ffcb9a7c8ddcda7d177c49acb77a *gd81-05-13 s1 t02 Jack Straw.flac
b1ee5fb697a58dd87365db6dbf3e3bf1 *gd81-05-13 s1 t03 Crowd_Tuning.flac
676619a30ff204d27febd177a37fe504 *gd81-05-13 s1 t04 Tennessee Jed.flac
494bf2011aafc37500a98ad16a0cfd08 *gd81-05-13 s1 t05 CC Rider.flac
022591b55d3636aee5dc50f46fec1947 *gd81-05-13 s1 t06 Friend Of The Devil.flac
83ee16934e1726f960b0fbe23ebc0922 *gd81-05-13 s1 t07 Mama Tried.flac
dd845ea124d3e50dde7a86c8e3518ff3 *gd81-05-13 s1 t08 Mexicali Blues.flac
86307f806e668a45b9d6273b1108328e *gd81-05-13 s1 t09. Bird Song.flac
198d0a7a3f5da652f79ef34a0c053b2a *gd81-05-13 s1 t10 Let It Grow.flac
4578684362d024eb1ac6483dcd89a796 *gd81-05-13 s1 t11 Deal.flac
9aa06ec3590a4eb51d28a2cdd9b47cab *gd81-05-13 s2 t01 Crowd_Tuning.flac
ed6b1396ca684e38015aab216d9920bd *gd81-05-13 s2 t02 Samson & Delilah.flac
35deacb193b7a1baa130c0a59e385089 *gd81-05-13 s2 t03 Terrapin Station.flac
01a86eccc7723ed1a3646870ea6a7f97 *gd81-05-13 s2 t04 Lost Sailor.flac
d9717fd961abcd554df1c5e1a645655a *gd81-05-13 s2 t05 Saint Of Circumstance.flac
a8b9a08080b588862ff19882c99bffc0 *gd81-05-13 s2 t06 Drums.flac
c8e2ec827e4d5a6cec35acd53d926257 *gd81-05-13 s2 t07 Space.flac
b187b5a0413e38cbcdbcf88cd8847afe *gd81-05-13 s2 t08 Aiko Aiko.flac
be87bc4f9f249c770996b211c73d2251 *gd81-05-13 s2 t09 I Need A Miracle.flac
32a52731535631a5983217b084c8e7aa *gd81-05-13 s2 t10 Stella Blue.flac
82e5d580617072e6254cc09f1895142a *gd81-05-13 s2 t11 Good Lovin'.flac
680eb26356136a70490829e2a81bf1a4 *gd81-05-13 s2 t12 Brokedown Palace.flac
ffp
gd81-05-13 s1 t01 Crowd_Tuning.flac:49786a8ba4906acdc79f9f325944ea5f
gd81-05-13 s1 t02 Jack Straw.flac:32d1d86170afea4e6366428ef2c03564
gd81-05-13 s1 t03 Crowd_Tuning.flac:870d817cabe2e215e87cfc5e92fa2430
gd81-05-13 s1 t04 Tennessee Jed.flac:2c95ec9e65d4b8eb5a1946722ca01f65
gd81-05-13 s1 t05 CC Rider.flac:e6d3ac1efd8f0f4a3adfa57721c6fe13
gd81-05-13 s1 t06 Friend Of The Devil.flac:6047cfbb988e4590fe7f6c0a5778429a
gd81-05-13 s1 t07 Mama Tried.flac:03c93fcda787cc948ade4f329ebb0ebc
gd81-05-13 s1 t08 Mexicali Blues.flac:2a42ea45c58daab9175b93f7b866dd20
gd81-05-13 s1 t09. Bird Song.flac:fa5813d55e3869f9d1cd2ec4bf11b435
gd81-05-13 s1 t10 Let It Grow.flac:5c53f0da1d4508ca4cb11e68429e8efe
gd81-05-13 s1 t11 Deal.flac:119a32a2bae69bc0df974a7205f4baa7
gd81-05-13 s2 t01 Crowd_Tuning.flac:6f2cfe8390376c9d82fb12b3ea75c328
gd81-05-13 s2 t02 Samson & Delilah.flac:262a9606ec9f95e7dede1bba52a475a7
gd81-05-13 s2 t03 Terrapin Station.flac:1239621bafcdc72b57c056a6f12511db
gd81-05-13 s2 t04 Lost Sailor.flac:d7bd1717e31e536beb5ba469f5065fc2
gd81-05-13 s2 t05 Saint Of Circumstance.flac:4e58765839f1cf83ab143897bf42cdbd
gd81-05-13 s2 t06 Drums.flac:8732604d01f4205a7e4af764d1cd92e6
gd81-05-13 s2 t07 Space.flac:ad34f070139d527314343103924ed0b7
gd81-05-13 s2 t08 Aiko Aiko.flac:7113ab9afee9df0ced5cee90b9a8b6b9
gd81-05-13 s2 t09 I Need A Miracle.flac:4d8d4d881e5e4245b713ff5fca2adb48
gd81-05-13 s2 t10 Stella Blue.flac:3289d0f8b2e02925672cfb50516d5d3c
gd81-05-13 s2 t11 Good Lovin'.flac:644374feacd9f38df75b9bb12aba3fdd
gd81-05-13 s2 t12 Brokedown Palace.flac:2ed0d1457916250577a744e4ece8c8e1

Comments
Add Comment
Other Sources (comments)
Nak 300's>MC>DAT>CDR;... (2) flac16; Recording... (0) flac16; Matrix 3... (0) DTS Audio 5.1 - SBD... (0) DVD-VA; (Video... (0) flac24; AUD: 3x... (1) flac16; AUD: 3x... (1) flac16; lineage: nak... (0) flac24; source: aud... (0) flac16; source: aud... (0) flac16; Source Info:... (0)
Date User Comment