Browse Collections Artists Sources   Search Dates

Add Show    List Management    Help


Grateful Dead 05/16/81
Barton Hall, Cornell U, Ithaca, NY
Comments Add Comment    Source Collectors    Add to Collection    Add to Want List    History
Source # 139958 Other Sources
Entered by Matt Vernon
Checksums ffp , flac-md5
Disc Counts 0 / 0
Media Size
Date Circulated
Date Added
11/19/2017
11/19/2017
Source Summary flac16; Source Info: Frank Streeter's Master FOB Audience Cassette; (3) Sennheiser 421 mics > Sony TC-D5M (TDK MA90); Transfer Info: Cassette Master (Nakamichi CR-7A) > Tascam DA-3000 (DSF 1-bit/5.8 MHz)> KORG AudioGate 4 > Adobe Audition 3.0> TLH flac2496 
  Archive
Source Information - Download Text | Download Zip
Grateful Dead
Barton Hall
Cornell University
Ithaca, NY
Saturday May 16, 1981

This is a 16/44 fileset. 24 bit to 16 bit via dBpoweramp

Source Info:
Frank Streeter's Master FOB Audience Cassette; (3) Sennheiser 421 mics >  Sony TC-D5M (TDK MA90)

Transfer Info:
Cassette Master (Nakamichi CR-7A) > Tascam DA-3000 (DSF 1-bit/5.8 MHz)> KORG AudioGate 4 > Adobe Audition 3.0> TLH flac2496

Notes:
- Thanks to Frank Streeter for the master recording
- Thanks to Charlie Miller for the transfer
- Thanks to the folks responsible for the shnid2212 senn421 source which supplies the the final 0:29 of "CC Rider", the first 0:33 of "Brown Eyed Women", "Shakedown Street > Bertha" in its entirety, the first 0:23 of "Lost Sailor", as well as a 1:26 patch in "Drums"
- Between song transitions smoothed

Transfer by Charlie Miller
Mastered by Scott Clugston
11/18/17

Set One:
s1 t01. Crowd / Tuning
s1 t02. Feel Like A Stranger
s1 t03. Friend Of The Devil
s1 t04. Me & My Uncle ->
s1 t05. Big River
s1 t06. Althea ->
s1 t07. CC Rider
s1 t08. Brown Eyed Women
s1 t19. Passenger
s1 t10. High Time ->
s1 t11. Let It Grow ->
s1 t12. Don't Ease Me In

Set Two:
s2 t01. Crowd /Tuning
s2 t02. Shakedown Street ->
s2 t03. Bertha ->
s2 t04. Lost Sailor ->
s2 t05. Saint Of Circumstance ->
s2 t06. Spanish Jam ->
s2 t07. Drums ->
s2 t08. Space ->
s2 t09. Truckin' -> Nobody's Fault Jam ->
s2 t10. Stella Blue ->
s2 t11. Going Down The Road Feeling Bad ->
s2 t12. One More Saturday Night
Encore:
s2 t13. Uncle John's Band



    length     expanded size    cdr  WAVE problems  fmt   ratio  filename
     1:22.30       14535404 B   ---   --   ---xx   flac  0.5565  gd81-05-16 s1 t01 Crowd_Tuning.flac
     8:53.48       94134140 B   ---   --   ---xx   flac  0.6555  gd81-05-16 s1 t02 Feel Like A Stranger.flac
     9:21.57       99094508 B   ---   --   ---xx   flac  0.6483  gd81-05-16 s1 t03 Friend Of The Devil.flac
     2:58.36       31483916 B   ---   --   ---xx   flac  0.6567  gd81-05-16 s1 t04 Me & My Uncle.flac
     7:01.15       74299724 B   ---   --   ---xx   flac  0.6525  gd81-05-16 s1 t05 Big River.flac
     8:51.66       93823676 B   ---   --   ---xx   flac  0.6550  gd81-05-16 s1 t06 Althea.flac
     8:26.25       89317244 B   ---   --   ---xx   flac  0.6437  gd81-05-16 s1 t07 CC Rider.flac
     5:16.57       55876508 B   ---   --   ---xx   flac  0.6511  gd81-05-16 s1 t08 Brown Eyed Women.flac
     5:22.32       56876108 B   ---   --   ---xx   flac  0.6784  gd81-05-16 s1 t09 Passenger.flac
     8:07.19       85951532 B   ---   --   ---xx   flac  0.6226  gd81-05-16 s1 t10 High Time.flac
    10:41.41      113168876 B   ---   --   ---xx   flac  0.6745  gd81-05-16 s1 t11 Let It Grow.flac
     3:18.14       34960172 B   ---   --   ---xx   flac  0.6722  gd81-05-16 s1 t12 Don't Ease Me In.flac
     0:31.55        5597804 B   ---   --   ---xx   flac  0.5419  gd81-05-16 s2 t01 Crowd_Tuning.flac
    16:24.32      173652908 B   ---   --   ---xx   flac  0.6045  gd81-05-16 s2 t02 Shakedown Street.flac
     5:50.34       61820012 B   ---   --   ---xx   flac  0.6104  gd81-05-16 s2 t03 Bertha.flac
     6:29.24       68676092 B   ---   --   ---xx   flac  0.6128  gd81-05-16 s2 t04 Lost Sailor.flac
     7:56.43       84067580 B   ---   --   ---xx   flac  0.6647  gd81-05-16 s2 t05 Saint Of Circumstance.flac
     7:37.48       80727740 B   ---   --   ---xx   flac  0.6527  gd81-05-16 s2 t06 Spanish Jam.flac
     9:04.66       96116876 B   ---   --   ---xx   flac  0.6017  gd81-05-16 s2 t07 Drums.flac
     4:55.42       52136828 B   ---   --   ---xx   flac  0.5715  gd81-05-16 s2 t08 Space.flac
     8:37.57       91332908 B   ---   --   ---xx   flac  0.6624  gd81-05-16 s2 t09 Truckin'.flac
    10:00.02      105844748 B   ---   --   ---xx   flac  0.6157  gd81-05-16 s2 t10 Stella Blue.flac
     6:25.12       67942268 B   ---   --   ---xx   flac  0.6690  gd81-05-16 s2 t11 Going Down The Road Feeling Bad.flac
     4:45.36       50358716 B   ---   --   ---xx   flac  0.6642  gd81-05-16 s2 t12 One More Saturday Night.flac
     9:24.07       99506108 B   ---   --   ---xx   flac  0.6811  gd81-05-16 s2 t13 Uncle John's Band.flac
   177:44.73     1881302396 B                            0.6415  (25 files)

No errors occured.


Show Checksums
ffp
gd81-05-16 s1 t01 Crowd_Tuning.flac:3bfed48da874eb158c7542983e8f8e86
gd81-05-16 s1 t02 Feel Like A Stranger.flac:a86baf16673c3c4c5110fbcf56535931
gd81-05-16 s1 t03 Friend Of The Devil.flac:e8c58fd8f2f39a7999f9c09763fe6242
gd81-05-16 s1 t04 Me & My Uncle.flac:9a041f17ad30e2b55a96b6c8d5da6f10
gd81-05-16 s1 t05 Big River.flac:41889c32c6c1b62a37c68f5ef6005a43
gd81-05-16 s1 t06 Althea.flac:ef26a5113d26540fc1b48acad978e4d8
gd81-05-16 s1 t07 CC Rider.flac:a75973a40aed36e026aa8da74d4b5acc
gd81-05-16 s1 t08 Brown Eyed Women.flac:8941c20d76a7cfbe606e8e489fb8001c
gd81-05-16 s1 t09 Passenger.flac:a339b17635fd43240351e89e2fd79265
gd81-05-16 s1 t10 High Time.flac:ebc0de8b5f81b9c6f08ebc4d629ec56b
gd81-05-16 s1 t11 Let It Grow.flac:5e4917dea6f9ebc40a6cb380acf7c170
gd81-05-16 s1 t12 Don't Ease Me In.flac:531e70684181f4db268d9a13be19eda5
gd81-05-16 s2 t01 Crowd_Tuning.flac:dca365bbf60f8e26e33f76d28202f31e
gd81-05-16 s2 t02 Shakedown Street.flac:348653d45cb91542f7009526de9b9cd2
gd81-05-16 s2 t03 Bertha.flac:8ea425fbefdcc68826a822d310fc02db
gd81-05-16 s2 t04 Lost Sailor.flac:a137180365a578fe280ac9f5401df550
gd81-05-16 s2 t05 Saint Of Circumstance.flac:6e7f386997cc188bb592eb3795dbd7a5
gd81-05-16 s2 t06 Spanish Jam.flac:0a42850d1fa3db8e2373624342b4c0b1
gd81-05-16 s2 t07 Drums.flac:57a73b4a3d7367695cd8350014a70d2d
gd81-05-16 s2 t08 Space.flac:5da9f7f00627d64849bc6d6d93aa7d16
gd81-05-16 s2 t09 Truckin'.flac:350e25f4444e4705e102117fcfdaaa42
gd81-05-16 s2 t10 Stella Blue.flac:b64d6f2ffe58498fe090e8542ef0532b
gd81-05-16 s2 t11 Going Down The Road Feeling Bad.flac:8be3974450999ef7b26654f9b189f601
gd81-05-16 s2 t12 One More Saturday Night.flac:6b38acb5c189568fd9e4673158e5c8b9
gd81-05-16 s2 t13 Uncle John's Band.flac:f91d9aacfdd27cdec517c093a1b151b4
flac-md5
31f5e012800696b7246a475d3b0c9fbe *gd81-05-16 s1 t01 Crowd_Tuning.flac
1fd47b39cad938c737fc936b380d007f *gd81-05-16 s1 t02 Feel Like A Stranger.flac
d905ff278334da5bf5ac16dcc40d482c *gd81-05-16 s1 t03 Friend Of The Devil.flac
6940e6a39b949a1827f30fda6b6b7ccd *gd81-05-16 s1 t04 Me & My Uncle.flac
bbbc38f95007ab5fa86479098227dc2a *gd81-05-16 s1 t05 Big River.flac
5f73a2c3435d93d7036e74f43accf946 *gd81-05-16 s1 t06 Althea.flac
1efa697392d429d4ec934874cacd1f3f *gd81-05-16 s1 t07 CC Rider.flac
4b82630952904ef193c3ac3b04fdd103 *gd81-05-16 s1 t08 Brown Eyed Women.flac
061b2670654dc813d11087937ef6a4a0 *gd81-05-16 s1 t09 Passenger.flac
9b39d4617643ce371295037920ad1e9a *gd81-05-16 s1 t10 High Time.flac
c11f3cee934db977f1c13fb033e20c49 *gd81-05-16 s1 t11 Let It Grow.flac
d1a3fae45df88ce2d6949b9eab2c98ef *gd81-05-16 s1 t12 Don't Ease Me In.flac
392513c1ad86d3bdbe84075f19f29022 *gd81-05-16 s2 t01 Crowd_Tuning.flac
af9eac32305f2bfd0758380b2adf5d73 *gd81-05-16 s2 t02 Shakedown Street.flac
f8e8f3ce2fc2f7271ec9659d0d1b5ad0 *gd81-05-16 s2 t03 Bertha.flac
334a506f48b673fa7c14da7811ea33c0 *gd81-05-16 s2 t04 Lost Sailor.flac
e6beb0a7d0408f801c8da6bfeada5d2d *gd81-05-16 s2 t05 Saint Of Circumstance.flac
cda34c85aa4a97bc7b688171bab4da4c *gd81-05-16 s2 t06 Spanish Jam.flac
adb403d45ff1bcc365bd4f827de83d41 *gd81-05-16 s2 t07 Drums.flac
03baf11fd008335abd673bb1c0e7f2f6 *gd81-05-16 s2 t08 Space.flac
aaa4e13c01d7cecc804097f2aa878a72 *gd81-05-16 s2 t09 Truckin'.flac
1ef69b09c856df613492d29007f60810 *gd81-05-16 s2 t10 Stella Blue.flac
e37f5e1a914a8a16b2edef86b2956bb8 *gd81-05-16 s2 t11 Going Down The Road Feeling Bad.flac
c0ca1cc3050ca6c032ba7147c7d3a7b4 *gd81-05-16 s2 t12 One More Saturday Night.flac
63dc9baac54085f45e3228d8f2aed94f *gd81-05-16 s2 t13 Uncle John's Band.flac

Comments
Add Comment
Other Sources (comments)
Recording by Jim Wise. Senn... (3) Recording by Jim Wise. FOB>... (1) Recording by Jim Wise. Main... (0) flac16; Recording by... (1) flac16; Set 1: SBD... (1) flac16; Matrix by... (0) flac24; Source Info:... (0) flac24; Set 2 Source... (0) flac16/48kHz; Set 2... (0)
Date User Comment