Browse Collections Artists Sources   Search Dates

Add Show    List Management    Help


Grateful Dead 05/16/81
Barton Hall, Cornell U, Ithaca, NY
Comments Add Comment    Source Collectors    Add to Collection    Add to Want List    History
Source # 139959 Other Sources
Entered by Matt Vernon
Checksums ffp , flac-md5
Disc Counts 0 / 0
Media Size
Date Circulated
Date Added
11/19/2017
11/19/2017
Source Summary flac24; Source Info: Frank Streeter's Master FOB Audience Cassette; (3) Sennheiser 421 mics > Sony TC-D5M (TDK MA90); Transfer Info: Cassette Master (Nakamichi CR-7A) > Tascam DA-3000 (DSF 1-bit/5.8 MHz)> KORG AudioGate 4 > Adobe Audition 3.0> TLH flac2496 
  Archive
Source Information - Download Text | Download Zip
Grateful Dead
Barton Hall
Cornell University
Ithaca, NY
Saturday May 16, 1981

Source Info:
Frank Streeter's Master FOB Audience Cassette; (3) Sennheiser 421 mics > Sony TC-D5M (TDK MA90)

Transfer Info:
Cassette Master (Nakamichi CR-7A) > Tascam DA-3000 (DSF 1-bit/5.8 MHz)> KORG AudioGate 4 > Adobe Audition 3.0> TLH flac2496

Notes:
- Thanks to Frank Streeter for the master recording
- Thanks to Charlie Miller for the transfer
- Thanks to the folks responsible for the shnid2212 senn421 source which supplies the the final 0:29 of "CC Rider", the first 0:33 of "Brown Eyed Women", "Shakedown Street > Bertha" in its entirety, the first 0:23 of "Lost Sailor", as well as a 1:26 patch in "Drums"
- Between song transitions smoothed

Transfer by Charlie Miller
Mastered by Scott Clugston
11/18/17

Set One:
s1 t01. Crowd / Tuning
s1 t02. Feel Like A Stranger
s1 t03. Friend Of The Devil
s1 t04. Me & My Uncle ->
s1 t05. Big River
s1 t06. Althea ->
s1 t07. CC Rider
s1 t08. Brown Eyed Women
s1 t19. Passenger
s1 t10. High Time ->
s1 t11. Let It Grow ->
s1 t12. Don't Ease Me In

Set Two:
s2 t01. Crowd /Tuning
s2 t02. Shakedown Street ->
s2 t03. Bertha ->
s2 t04. Lost Sailor ->
s2 t05. Saint Of Circumstance ->
s2 t06. Spanish Jam ->
s2 t07. Drums ->
s2 t08. Space ->
s2 t09. Truckin' -> Nobody's Fault Jam ->
s2 t10. Stella Blue ->
s2 t11. Going Down The Road Feeling Bad ->
s2 t12. One More Saturday Night
Encore:
s2 t13. Uncle John's Band



   length     expanded size    cdr  WAVE problems  fmt   ratio  filename
     1:22.400      47462444 B   cxx   --   ---xx   flac  0.6527  gd81-05-16 s1 t01 Crowd_Tuning.flac
     8:53.640     307376684 B   cxx   --   ---xx   flac  0.6941  gd81-05-16 s1 t02 Feel Like A Stranger.flac
     9:21.760     323573804 B   cxx   --   ---xx   flac  0.6911  gd81-05-16 s1 t03 Friend Of The Devil.flac
     2:58.480     102804524 B   cxx   --   ---xx   flac  0.6935  gd81-05-16 s1 t04 Me & My Uncle.flac
     7:01.200     242611244 B   cxx   --   ---xx   flac  0.6928  gd81-05-16 s1 t05 Big River.flac
     8:51.880     306362924 B   cxx   --   ---xx   flac  0.6933  gd81-05-16 s1 t06 Althea.flac
     8:26.333     291648044 B   cxx   --   ---xx   flac  0.6856  gd81-05-16 s1 t07 CC Rider.flac
     5:16.760     182453804 B   cxx   --   ---xx   flac  0.6829  gd81-05-16 s1 t08 Brown Eyed Women.flac
     5:22.427     185717804 B   cxx   --   ---xx   flac  0.7022  gd81-05-16 s1 t09 Passenger.flac
     8:07.253     280657964 B   cxx   --   ---xx   flac  0.6814  gd81-05-16 s1 t10 High Time.flac
    10:41.547     369530924 B   cxx   --   ---xx   flac  0.7002  gd81-05-16 s1 t11 Let It Grow.flac
     3:18.197     114161720 B   cxx   --   ---xx   flac  0.6997  gd81-05-16 s1 t12 Don't Ease Me In.flac
     0:31.733      18278444 B   cxx   --   ---xx   flac  0.5568  gd81-05-16 s2 t01 Crowd_Tuning.flac
    16:24.427     567029804 B   cxx   --   ---xx   flac  0.5971  gd81-05-16 s2 t02 Shakedown Street.flac
     5:50.453     201861164 B   cxx   --   ---xx   flac  0.6086  gd81-05-16 s2 t03 Bertha.flac
     6:29.320     224248364 B   cxx   --   ---xx   flac  0.6658  gd81-05-16 s2 t04 Lost Sailor.flac
     7:56.573     274506284 B   cxx   --   ---xx   flac  0.6911  gd81-05-16 s2 t05 Saint Of Circumstance.flac
     7:37.640     263600684 B   cxx   --   ---xx   flac  0.6858  gd81-05-16 s2 t06 Spanish Jam.flac
     9:04.880     313850924 B   cxx   --   ---xx   flac  0.6572  gd81-05-16 s2 t07 Drums.flac
     4:55.560     170242604 B   cxx   --   ---xx   flac  0.6600  gd81-05-16 s2 t08 Space.flac
     8:37.760     298229804 B   cxx   --   ---xx   flac  0.6923  gd81-05-16 s2 t09 Truckin'.flac
    10:00.027     345615404 B   cxx   --   ---xx   flac  0.6771  gd81-05-16 s2 t10 Stella Blue.flac
     6:25.160     221852204 B   cxx   --   ---xx   flac  0.6958  gd81-05-16 s2 t11 Going Down The Road Feeling Bad.flac
     4:45.480     164436524 B   cxx   --   ---xx   flac  0.6953  gd81-05-16 s2 t12 One More Saturday Night.flac
     9:24.074     324906536 B   cxx   --   ---xx   flac  0.7026  gd81-05-16 s2 t13 Uncle John's Band.flac
   177:44.964    6143020628 B                            0.6759  (25 files)

No errors occured.


Show Checksums
ffp
gd81-05-16 s1 t01 Crowd_Tuning.flac:283d5ca361c6ec9630b26141f171998d
gd81-05-16 s1 t02 Feel Like A Stranger.flac:95392256b61b9bc155bb23b06c328c28
gd81-05-16 s1 t03 Friend Of The Devil.flac:149d05aa189e3f70cd997e501943b0a3
gd81-05-16 s1 t04 Me & My Uncle.flac:12f31673d8088da41344d8071393622b
gd81-05-16 s1 t05 Big River.flac:8e19ca317c47b0114faa91b0234b8562
gd81-05-16 s1 t06 Althea.flac:9cf308b4d0342a4c9cf9bd97c8b4e31a
gd81-05-16 s1 t07 CC Rider.flac:363e4e6427093eb5fa26a4a1136f3bc0
gd81-05-16 s1 t08 Brown Eyed Women.flac:332a1f8a03de4a4b735824fc6227197e
gd81-05-16 s1 t09 Passenger.flac:889b90927b6e9b01f15b9b762d0a816b
gd81-05-16 s1 t10 High Time.flac:da8883674ecb56854d8ad56594def18f
gd81-05-16 s1 t11 Let It Grow.flac:455ae26b9f240508fc2cadeb2c96fe44
gd81-05-16 s1 t12 Don't Ease Me In.flac:107ae20d0dd5edc49773e206c59af1d8
gd81-05-16 s2 t01 Crowd_Tuning.flac:cadbdcfffa7c03949ea1fdbd6862ac72
gd81-05-16 s2 t02 Shakedown Street.flac:cbcbe42130c1bb4854af600e12d38a5b
gd81-05-16 s2 t03 Bertha.flac:cf19ca82d76c33849d67262d8d0556e4
gd81-05-16 s2 t04 Lost Sailor.flac:1b0f4982e5847baa3fad0dfe49fda33f
gd81-05-16 s2 t05 Saint Of Circumstance.flac:06f30eaf5acf3a3f00fa7d39f80f0432
gd81-05-16 s2 t06 Spanish Jam.flac:af79eb01fd8f6f63c11549be87d9db43
gd81-05-16 s2 t07 Drums.flac:46fb6b701eb8a5302ab092992a93cfc5
gd81-05-16 s2 t08 Space.flac:01d2a01b69a41e3aeb091eca4071292b
gd81-05-16 s2 t09 Truckin'.flac:51fb98010d726b39eda1f151b9de9b2c
gd81-05-16 s2 t10 Stella Blue.flac:dea3c385efed3482d7b5de768f82ddc7
gd81-05-16 s2 t11 Going Down The Road Feeling Bad.flac:3cca373a54316c643c491689840adbc9
gd81-05-16 s2 t12 One More Saturday Night.flac:effa9d7353339d75015944fdc2bc5354
gd81-05-16 s2 t13 Uncle John's Band.flac:24d47c78e7a5f49558716bb73fdddee0
flac-md5
c1ec03d7e8662af80d1818de584e714a *gd81-05-16 s1 t01 Crowd_Tuning.flac
e1ed53e3cda2eb95e23172aed5cad024 *gd81-05-16 s1 t02 Feel Like A Stranger.flac
ad67379a1ae7ca25958b1f10135387d4 *gd81-05-16 s1 t03 Friend Of The Devil.flac
ec3efdfe4d74634bcba989311a5f2946 *gd81-05-16 s1 t04 Me & My Uncle.flac
619a4845795a6115568fb799cf3f9fa9 *gd81-05-16 s1 t05 Big River.flac
b792bf7b53d30c99be57477003bbbd29 *gd81-05-16 s1 t06 Althea.flac
a0b1675637a4f67aff24de309597528b *gd81-05-16 s1 t07 CC Rider.flac
627ea06d3c8d3d75595a5879d2248080 *gd81-05-16 s1 t08 Brown Eyed Women.flac
1fce6a0a5f8c221a4bba8b58950b08a3 *gd81-05-16 s1 t09 Passenger.flac
56db094587ee641dc31bfddb66c052b0 *gd81-05-16 s1 t10 High Time.flac
3fa98dc39958751797cf3005e2cba8bc *gd81-05-16 s1 t11 Let It Grow.flac
da454065d758cb030e9a2b0a50a7a91d *gd81-05-16 s1 t12 Don't Ease Me In.flac
069e43570576f2d9c31bf23fdb9be7be *gd81-05-16 s2 t01 Crowd_Tuning.flac
c6446914a28aa32aa9c722095ccbd8c8 *gd81-05-16 s2 t02 Shakedown Street.flac
2713156c8984d19706df8433878d9701 *gd81-05-16 s2 t03 Bertha.flac
a220f88d9165dc0ff2d9d3f077b4a7fa *gd81-05-16 s2 t04 Lost Sailor.flac
d3209132206cf3cacddba88d134de951 *gd81-05-16 s2 t05 Saint Of Circumstance.flac
703a7072f3993f518bd19d4e5cdbbe29 *gd81-05-16 s2 t06 Spanish Jam.flac
3a21e105f19d02a51c4ca96771360f7b *gd81-05-16 s2 t07 Drums.flac
ca6aee2d85f6ebed6cc3afb11bcac6b1 *gd81-05-16 s2 t08 Space.flac
55157c5447a5ea9118f67a61a685061a *gd81-05-16 s2 t09 Truckin'.flac
b463af0a9f20479588132d13c2b87517 *gd81-05-16 s2 t10 Stella Blue.flac
2ce5329246b258b458496592947c4179 *gd81-05-16 s2 t11 Going Down The Road Feeling Bad.flac
bc0ec3b3264207f09cc3e94274464c08 *gd81-05-16 s2 t12 One More Saturday Night.flac
926a4fa6a8c2e0d3a1d2fc298b7e21f8 *gd81-05-16 s2 t13 Uncle John's Band.flac

Comments
Add Comment
Other Sources (comments)
Recording by Jim Wise. Senn... (3) Recording by Jim Wise. FOB>... (1) Recording by Jim Wise. Main... (0) flac16; Recording by... (1) flac16; Set 1: SBD... (1) flac16; Matrix by... (0) flac16; Source Info:... (0) flac24; Set 2 Source... (0) flac16/48kHz; Set 2... (0)
Date User Comment