Browse Collections Artists Sources   Search Dates

Add Show    List Management    Help


Grateful Dead 05/17/81
Onondaga County War Memorial, Syracuse, NY
Comments Add Comment    Source Collectors    Add to Collection    Add to Want List    History
Source # 139960 Other Sources
Entered by Matt Vernon
Checksums ffp , flac-md5
Disc Counts 0 / 0
Media Size
Date Circulated
Date Added
11/19/2017
11/19/2017
Source Summary flac16; Source Info: Frank Streeter's Master FOB Audience Cassette; Sennheiser 421 mics > Sony TC-D5M (TDK MA90); Transfer Info: Cassette Master (Nakamichi CR-7A) > Tascam DA-3000 (DSF 1-bit/5.8 MHz)> KORG AudioGate 4 > Adobe Audition 3.0> TLH flac2496 
  Archive
Source Information - Download Text | Download Zip
Grateful Dead
Onondaga County War Memorial
Syracuse, NY
Sunday May 17, 1981

This is a 16/44 fileset. 24 bit to 16 bit via dBpoweramp

Source Info:
Frank Streeter's Master FOB Audience Cassette; Sennheiser 421 mics > Sony TC-D5M (TDK MA90)

Transfer Info:
Cassette Master (Nakamichi CR-7A) > Tascam DA-3000 (DSF 1-bit/5.8 MHz)> KORG AudioGate 4 > Adobe Audition 3.0> TLH flac2496

Notes:
- Thanks to Frank Streeter for the master recording
- Thanks to Charlie Miller for the transfer
- Thanks to the folks responsible for the shnid27974 nak300 source which supplies the tuning and 1st 0:12 of "Alabama Getaway", as well as a 0:58 patch in "Drums"
- Between song transitions smoothed

Transfer by Charlie Miller
Mastered by Scott Clugston
11/18/17

Set One:
s1 t01. Alabama Getaway ->
s1 t02. Promised Land
s1 t03. Peggy O
s1 t04. Mama Tried ->
s1 t05. Mexicali Blues
s1 t06. They Love Each Other
s1 t07. New Minglewood Blues
s1 t08. Candyman ->
s1 t19. Looks Like Rain
s1 t10. Big Railroad Blues ->
s1 t11. Little Red Rooster
s1 t12. China Cat Sunflower ->
s1 t13. I Know You Rider

Set Two:
s2 t01. Crowd /Tuning
s2 t02. Cold Rain & Snow ->
s2 t03. Samson & Delilah
s2 t04. Ship Of Fools
s2 t05. Estimated Prophet ->
s2 t06. He's Gone ->
s2 t07. The Other One ->
s2 t08. Drums ->
s2 t09. Space ->
s2 t10. Saint Of Circumstance ->
s2 t11. Wharf Rat ->
s2 t12. Sugar Magnolia
Encore:
s2 t13. Satisfaction



     length     expanded size    cdr  WAVE problems  fmt   ratio  filename
     5:46.62       61180268 B   ---   --   ---xx   flac  0.6211  gd81-05-17 s1 t01 Alabama Getaway.flac
     4:24.15       46604924 B   ---   --   ---xx   flac  0.6429  gd81-05-17 s1 t02 Promised Land.flac
     7:10.73       76023740 B   ---   --   ---xx   flac  0.5909  gd81-05-17 s1 t03 Peggy O.flac
     2:32.53       26937500 B   ---   --   ---xx   flac  0.6235  gd81-05-17 s1 t04 Mama Tried.flac
     4:45.40       50368124 B   ---   --   ---xx   flac  0.6203  gd81-05-17 s1 t05 Mexicali Blues.flac
     7:41.15       81355724 B   ---   --   ---xx   flac  0.6138  gd81-05-17 s1 t06 They Love Each Other.flac
     7:47.08       82397660 B   ---   --   ---xx   flac  0.6333  gd81-05-17 s1 t07 New Minglewood Blues.flac
     7:03.05       74629004 B   ---   --   ---xx   flac  0.6077  gd81-05-17 s1 t08 Candyman.flac
     8:52.45       93950684 B   ---   --   ---xx   flac  0.6155  gd81-05-17 s1 t09 Looks Like Rain.flac
     4:20.28       45929900 B   ---   --   ---xx   flac  0.6541  gd81-05-17 s1 t10 Big Railroad Blues.flac
     8:48.26       93200396 B   ---   --   ---xx   flac  0.6356  gd81-05-17 s1 t11 Little Red Rooster.flac
     6:22.73       67556540 B   ---   --   ---xx   flac  0.6231  gd81-05-17 s1 t12 China Cat Sunflower.flac
     5:54.07       62462108 B   ---   --   ---xx   flac  0.6466  gd81-05-17 s1 t13 I Know You Rider.flac
     0:58.59       10370012 B   ---   --   ---xx   flac  0.5373  gd81-05-17 s2 t01 Crowd_Tuning.flac
     6:18.26       66740396 B   ---   --   ---xx   flac  0.6169  gd81-05-17 s2 t02 Cold Rain & Snow.flac
     7:10.71       76019036 B   ---   --   ---xx   flac  0.6335  gd81-05-17 s2 t03 Samson & Delilah.flac
     8:53.42       94120028 B   ---   --   ---xx   flac  0.5997  gd81-05-17 s2 t04 Ship Of Fools.flac
    12:45.20      134993084 B   ---   --   ---xx   flac  0.6193  gd81-05-17 s2 t05 Estimated Prophet.flac
    11:12.48      118653740 B   ---   --   ---xx   flac  0.5975  gd81-05-17 s2 t06 He's Gone.flac
     4:22.48       46329740 B   ---   --   ---xx   flac  0.6502  gd81-05-17 s2 t07 The Other One.flac
     9:04.18       96003980 B   ---   --   ---xx   flac  0.5679  gd81-05-17 s2 t08 Drums.flac
     5:11.55       54989804 B   ---   --   ---xx   flac  0.5439  gd81-05-17 s2 t09 Space.flac
     6:17.22       66554588 B   ---   --   ---xx   flac  0.6404  gd81-05-17 s2 t10 Saint Of Circumstance.flac
    10:06.74      107072492 B   ---   --   ---xx   flac  0.6085  gd81-05-17 s2 t11 Wharf Rat.flac
     8:32.72       90486188 B   ---   --   ---xx   flac  0.6511  gd81-05-17 s2 t12 Sugar Magnolia.flac
     6:34.36       69586316 B   ---   --   ---xx   flac  0.6439  gd81-05-17 s2 t13 Satisfaction.flac
   178:59.66     1894515976 B                            0.6175  (26 files)

No errors occured.


Show Checksums
ffp
gd81-05-17 s1 t01 Alabama Getaway.flac:8899433c44ad8000dcf4ebd9e93da930
gd81-05-17 s1 t02 Promised Land.flac:e4c8fcbd62f648599f096d8e4a11128a
gd81-05-17 s1 t03 Peggy O.flac:63dbf8253c45aa62e75cb203f971accc
gd81-05-17 s1 t04 Mama Tried.flac:8abfab78151f489228bbde9ee59f67f8
gd81-05-17 s1 t05 Mexicali Blues.flac:9d10bf7ffdeb5d1397b103900acaf97a
gd81-05-17 s1 t06 They Love Each Other.flac:fe541078163c30d4f8a50c9b61b31f78
gd81-05-17 s1 t07 New Minglewood Blues.flac:8ad9ee14db791ddeebf18cbe0f14e919
gd81-05-17 s1 t08 Candyman.flac:e487317a8b3d63f75ada3ed188d913b1
gd81-05-17 s1 t09 Looks Like Rain.flac:f052857e58679307c13a7e15dfdc037f
gd81-05-17 s1 t10 Big Railroad Blues.flac:6af8336c5dbe742cac2adba06c44d28e
gd81-05-17 s1 t11 Little Red Rooster.flac:580d72ced76d5f19d0bc1166385c1a12
gd81-05-17 s1 t12 China Cat Sunflower.flac:209b5e30793cd278dc70142208480ab5
gd81-05-17 s1 t13 I Know You Rider.flac:a5dad8d7ffa4b5336cc73b3484c61352
gd81-05-17 s2 t01 Crowd_Tuning.flac:831b6dd5cead859c5dce3dd8b1248458
gd81-05-17 s2 t02 Cold Rain & Snow.flac:96c6250f05b285846c93ca33e12a81a2
gd81-05-17 s2 t03 Samson & Delilah.flac:395aeefc7090c5e02be95bf7d57a517f
gd81-05-17 s2 t04 Ship Of Fools.flac:ed8154a1cf43fe3bb97cc2ce6d2dee58
gd81-05-17 s2 t05 Estimated Prophet.flac:d07d218739918e27ca1ce06325b4a9a6
gd81-05-17 s2 t06 He's Gone.flac:848e19dce14b5554e91bd2c8bb75c46a
gd81-05-17 s2 t07 The Other One.flac:849d5fabdf56bd8bf8c080315dd3773c
gd81-05-17 s2 t08 Drums.flac:bc4f49c06f91e3c9474326fc93c12620
gd81-05-17 s2 t09 Space.flac:bdfed00dc82ea220357acfd19456f941
gd81-05-17 s2 t10 Saint Of Circumstance.flac:8c799bdcdf19dac8d3f46be676769bdc
gd81-05-17 s2 t11 Wharf Rat.flac:7585133fb717a381157e0609bf0a7703
gd81-05-17 s2 t12 Sugar Magnolia.flac:1b8afd5835fcc581899e219377b69bd4
gd81-05-17 s2 t13 Satisfaction.flac:2ba440d033728ed4f9e2aac3408ca637
flac-md5
95140ab943fbd1482d6ae22b00887c41 *gd81-05-17 s1 t01 Alabama Getaway.flac
420edd871cf5fb38ad17a63e994aea28 *gd81-05-17 s1 t02 Promised Land.flac
5b3679127d8f1356ef482d0acc5584fd *gd81-05-17 s1 t03 Peggy O.flac
ab98b17e04622de4b89bd77b48d583c3 *gd81-05-17 s1 t04 Mama Tried.flac
27a6e0e1904fa02f433754f238ae33eb *gd81-05-17 s1 t05 Mexicali Blues.flac
6ff4f12df854e8224504e7befc040192 *gd81-05-17 s1 t06 They Love Each Other.flac
b2f11b6b5051d99cb629c5e2db06bbe7 *gd81-05-17 s1 t07 New Minglewood Blues.flac
0ccc3bc36b1f0095a0088cb1013fc2bd *gd81-05-17 s1 t08 Candyman.flac
d2c43e4b9888e563b2b1e84d634d1147 *gd81-05-17 s1 t09 Looks Like Rain.flac
28da1206b1bb397acf52d853ca3b9ef9 *gd81-05-17 s1 t10 Big Railroad Blues.flac
273824d56d99e9c51754e3d479aa2bb9 *gd81-05-17 s1 t11 Little Red Rooster.flac
81af910d5172f31411f510f16a61aa8a *gd81-05-17 s1 t12 China Cat Sunflower.flac
ff843f163f22a4195dcc761717c7b761 *gd81-05-17 s1 t13 I Know You Rider.flac
049da373343349041fb4e2ac57e89f22 *gd81-05-17 s2 t01 Crowd_Tuning.flac
11ab06a7785c7128f4b29a31aba9c3ee *gd81-05-17 s2 t02 Cold Rain & Snow.flac
840432e770c74b1a3587d5cc6917a725 *gd81-05-17 s2 t03 Samson & Delilah.flac
86a0447c438bf9e05e5f894a66af5b16 *gd81-05-17 s2 t04 Ship Of Fools.flac
71d1b01ac99d9fd58b1710b486c2fc47 *gd81-05-17 s2 t05 Estimated Prophet.flac
415e60116d3359ccc50dbc95cd763865 *gd81-05-17 s2 t06 He's Gone.flac
312a4f98baa2ea075d4c51ef3f81848a *gd81-05-17 s2 t07 The Other One.flac
85e1e02048d46bc5c3015526baaa8bf0 *gd81-05-17 s2 t08 Drums.flac
e37424f6e83634b135bbd23cafb5990d *gd81-05-17 s2 t09 Space.flac
70ff46d5bd8edb3f15da44a18c7f95a9 *gd81-05-17 s2 t10 Saint Of Circumstance.flac
7e3035b304753d586d8dc032ec8ac185 *gd81-05-17 s2 t11 Wharf Rat.flac
97841a263e0fba9bbb7d9e148c980f5e *gd81-05-17 s2 t12 Sugar Magnolia.flac
33f8ce267b7389ae231f269da1d455ce *gd81-05-17 s2 t13 Satisfaction.flac

Comments
Add Comment
Other Sources (comments)
Possible Jim Wise... (3) flac16; Recording by... (0) flac16;set2:... (0) flac24; Source Info:... (0) flac24; Jim Wise's... (0) flac16/48kHz; Jim... (0)
Date User Comment