Browse Collections Artists Sources   Search Dates

Add Show    List Management    Help


Grateful Dead 05/17/81
Onondaga County War Memorial, Syracuse, NY
Comments Add Comment    Source Collectors    Add to Collection    Add to Want List    History
Source # 139961 Other Sources
Entered by Matt Vernon
Checksums ffp , flac-md5
Disc Counts 0 / 0
Media Size
Date Circulated
Date Added
11/19/2017
11/19/2017
Source Summary flac24; Source Info: Frank Streeter's Master FOB Audience Cassette; Sennheiser 421 mics > Sony TC-D5M (TDK MA90); Transfer Info: Cassette Master (Nakamichi CR-7A) > Tascam DA-3000 (DSF 1-bit/5.8 MHz)> KORG AudioGate 4 > Adobe Audition 3.0> TLH flac2496 
  Archive
Source Information - Download Text | Download Zip
Grateful Dead
Onondaga County War Memorial
Syracuse, NY
Sunday May 17, 1981

Source Info:
Frank Streeter's Master FOB Audience Cassette; Sennheiser 421 mics > Sony TC-D5M (TDK MA90)

Transfer Info:
Cassette Master (Nakamichi CR-7A) > Tascam DA-3000 (DSF 1-bit/5.8 MHz)> KORG AudioGate 4 > Adobe Audition 3.0> TLH flac2496

Notes:
- Thanks to Frank Streeter for the master recording
- Thanks to Charlie Miller for the transfer
- Thanks to the folks responsible for the shnid27974 nak300 source which supplies the tuning and 1st 0:12 of "Alabama Getaway", as well as a 0:58 patch in "Drums"
- Between song transitions smoothed

Transfer by Charlie Miller
Mastered by Scott Clugston
11/18/17

Set One:
s1 t01. Alabama Getaway ->
s1 t02. Promised Land
s1 t03. Peggy O
s1 t04. Mama Tried ->
s1 t05. Mexicali Blues
s1 t06. They Love Each Other
s1 t07. New Minglewood Blues
s1 t08. Candyman ->
s1 t19. Looks Like Rain
s1 t10. Big Railroad Blues ->
s1 t11. Little Red Rooster
s1 t12. China Cat Sunflower ->
s1 t13. I Know You Rider

Set Two:
s2 t01. Crowd /Tuning
s2 t02. Cold Rain & Snow ->
s2 t03. Samson & Delilah
s2 t04. Ship Of Fools
s2 t05. Estimated Prophet ->
s2 t06. He's Gone ->
s2 t07. The Other One ->
s2 t08. Drums ->
s2 t09. Space ->
s2 t10. Saint Of Circumstance ->
s2 t11. Wharf Rat ->
s2 t12. Sugar Magnolia
Encore:
s2 t13. Satisfaction



     length     expanded size    cdr  WAVE problems  fmt   ratio  filename
     5:46.827     199772204 B   cxx   --   ---xx   flac  0.6700  gd81-05-17 s1 t01 Alabama Getaway.flac
     4:24.200     152179244 B   cxx   --   ---xx   flac  0.6899  gd81-05-17 s1 t02 Promised Land.flac
     7:10.973     248240684 B   cxx   --   ---xx   flac  0.6683  gd81-05-17 s1 t03 Peggy O.flac
     2:32.707      87959084 B   cxx   --   ---xx   flac  0.6803  gd81-05-17 s1 t04 Mama Tried.flac
     4:45.533     164467244 B   cxx   --   ---xx   flac  0.6790  gd81-05-17 s1 t05 Mexicali Blues.flac
     7:41.200     265651244 B   cxx   --   ---xx   flac  0.6757  gd81-05-17 s1 t06 They Love Each Other.flac
     7:47.107     269053484 B   cxx   --   ---xx   flac  0.6843  gd81-05-17 s1 t07 New Minglewood Blues.flac
     7:03.067     243686444 B   cxx   --   ---xx   flac  0.6747  gd81-05-17 s1 t08 Candyman.flac
     8:52.600     306777644 B   cxx   --   ---xx   flac  0.6784  gd81-05-17 s1 t09 Looks Like Rain.flac
     4:20.373     149975084 B   cxx   --   ---xx   flac  0.6943  gd81-05-17 s1 t10 Big Railroad Blues.flac
     8:48.347     304327724 B   cxx   --   ---xx   flac  0.6863  gd81-05-17 s1 t11 Little Red Rooster.flac
     6:22.973     220592684 B   cxx   --   ---xx   flac  0.6803  gd81-05-17 s1 t12 China Cat Sunflower.flac
     5:54.096     203959082 B   cxx   --   ---xx   flac  0.6905  gd81-05-17 s1 t13 I Know You Rider.flac
     0:58.787      33861164 B   cxx   --   ---xx   flac  0.6493  gd81-05-17 s2 t01 Crowd_Tuning.flac
     6:18.347     217927724 B   cxx   --   ---xx   flac  0.6752  gd81-05-17 s2 t02 Cold Rain & Snow.flac
     7:10.947     248225324 B   cxx   --   ---xx   flac  0.6827  gd81-05-17 s2 t03 Samson & Delilah.flac
     8:53.560     307330604 B   cxx   --   ---xx   flac  0.6705  gd81-05-17 s2 t04 Ship Of Fools.flac
    12:45.267     440793644 B   cxx   --   ---xx   flac  0.6774  gd81-05-17 s2 t05 Estimated Prophet.flac
    11:12.640     387440684 B   cxx   --   ---xx   flac  0.6692  gd81-05-17 s2 t06 He's Gone.flac
     4:22.640     151280684 B   cxx   --   ---xx   flac  0.6898  gd81-05-17 s2 t07 The Other One.flac
     9:04.240     313482284 B   cxx   --   ---xx   flac  0.6578  gd81-05-17 s2 t08 Drums.flac
     5:11.733     179558444 B   cxx   --   ---xx   flac  0.6534  gd81-05-17 s2 t09 Space.flac
     6:17.293     217321004 B   cxx   --   ---xx   flac  0.6853  gd81-05-17 s2 t10 Saint Of Circumstance.flac
    10:06.987     349624364 B   cxx   --   ---xx   flac  0.6742  gd81-05-17 s2 t11 Wharf Rat.flac
     8:32.960     295465004 B   cxx   --   ---xx   flac  0.6901  gd81-05-17 s2 t12 Sugar Magnolia.flac
     6:34.469     227214200 B   cxx   --   ---xx   flac  0.6851  gd81-05-17 s2 t13 Satisfaction.flac
   178:59.871    6186166978 B                            0.6775  (26 files)

No errors occured.


Show Checksums
ffp
gd81-05-17 s1 t01 Alabama Getaway.flac:63001234c895c958e762ecde9aede4e9
gd81-05-17 s1 t02 Promised Land.flac:63c250babdb5910e7968f59cfc724c9c
gd81-05-17 s1 t03 Peggy O.flac:a146dac2a4cac1bda3644f8d21a1b263
gd81-05-17 s1 t04 Mama Tried.flac:fd701359a86bb4436a91503688952873
gd81-05-17 s1 t05 Mexicali Blues.flac:07967e43ce049aec0f9c5ded5d97a87a
gd81-05-17 s1 t06 They Love Each Other.flac:a6ae9ae2ac65f418d9e0233ae8a3b938
gd81-05-17 s1 t07 New Minglewood Blues.flac:2d3bc282adae6e953566f8edb7215c3e
gd81-05-17 s1 t08 Candyman.flac:78e918b065dc23b2afbe154997514300
gd81-05-17 s1 t09 Looks Like Rain.flac:dbc7044fa87dd38c2a354b72a01184a9
gd81-05-17 s1 t10 Big Railroad Blues.flac:4195da792b2561068121a373ba685c20
gd81-05-17 s1 t11 Little Red Rooster.flac:b07e1870b48f52951b209dd255f9dbc6
gd81-05-17 s1 t12 China Cat Sunflower.flac:901ce1bf3696a4569bb83b52845f38a8
gd81-05-17 s1 t13 I Know You Rider.flac:9217cf3f5a75f9b9ee4c139353c59786
gd81-05-17 s2 t01 Crowd_Tuning.flac:0bbc900ecb036828ccb2c185d6e222d5
gd81-05-17 s2 t02 Cold Rain & Snow.flac:0fcb9afb0e539e359214f95daf8c48c4
gd81-05-17 s2 t03 Samson & Delilah.flac:6e5388e45e3d3a5e3e237526e2c03300
gd81-05-17 s2 t04 Ship Of Fools.flac:a9d85464f30eba05bd60d1562cc0d9b0
gd81-05-17 s2 t05 Estimated Prophet.flac:b075c68790f6771d41f5079f9c2647f7
gd81-05-17 s2 t06 He's Gone.flac:2537cac9436649fa2bee8699a65075d5
gd81-05-17 s2 t07 The Other One.flac:2ac4aed3163149cf8e0d1199948c6602
gd81-05-17 s2 t08 Drums.flac:028d25df7afb00f2934fa3de74f88bf3
gd81-05-17 s2 t09 Space.flac:8377d6afe85f9b138b66a032f71073fc
gd81-05-17 s2 t10 Saint Of Circumstance.flac:f2602f50c2c2bd5f6f2f9131fe8a646e
gd81-05-17 s2 t11 Wharf Rat.flac:a395756d35007f6180dc2fbf8b2c58ff
gd81-05-17 s2 t12 Sugar Magnolia.flac:8248a488a75872405006f6f5497b5b11
gd81-05-17 s2 t13 Satisfaction.flac:34c72371adb5b731bf416ea0d2be7391
flac-md5
6ee0d839b1d867dda84448fe4b136002 *gd81-05-17 s1 t01 Alabama Getaway.flac
6b62d5e23fbb46a58b6178f2ca157b45 *gd81-05-17 s1 t02 Promised Land.flac
ddc0b54502cc35e556cfa38fafd8f7ed *gd81-05-17 s1 t03 Peggy O.flac
8d9c3b1af8a648153cf0e33c7eaa12b5 *gd81-05-17 s1 t04 Mama Tried.flac
0b15c798ae0f5f42771e46f43269c795 *gd81-05-17 s1 t05 Mexicali Blues.flac
d7d4442bc0e36f8e8188e985ac3674d7 *gd81-05-17 s1 t06 They Love Each Other.flac
a98640c04862322f700ffb8a1ba49bdb *gd81-05-17 s1 t07 New Minglewood Blues.flac
b5660111601a0f06df48c194f0816236 *gd81-05-17 s1 t08 Candyman.flac
a3a84cfe0ddc8b1519c525ff4617d7fc *gd81-05-17 s1 t09 Looks Like Rain.flac
de5dd5c92f5f413afcbb310b034b4204 *gd81-05-17 s1 t10 Big Railroad Blues.flac
8c2ff6748f342c25e6b48050958cea76 *gd81-05-17 s1 t11 Little Red Rooster.flac
549208fa8e502a64ae40b98bc24870d5 *gd81-05-17 s1 t12 China Cat Sunflower.flac
86219bfc1e85ae4da9be2bad5270a559 *gd81-05-17 s1 t13 I Know You Rider.flac
8ff2c790773c8962f1d00367418fecf6 *gd81-05-17 s2 t01 Crowd_Tuning.flac
d2ce3339273af5697de491ac8bfeb5bf *gd81-05-17 s2 t02 Cold Rain & Snow.flac
e772de15563cb9848a8c57dbbd696084 *gd81-05-17 s2 t03 Samson & Delilah.flac
57e5464b015c6fd6766404a89133a2c5 *gd81-05-17 s2 t04 Ship Of Fools.flac
fe22d60fe9ae79caf922481c31cc22ba *gd81-05-17 s2 t05 Estimated Prophet.flac
e2345ca9c4d5db2e84836c35512dc8a6 *gd81-05-17 s2 t06 He's Gone.flac
7d2ec2ce859100789ec26b559b2522ab *gd81-05-17 s2 t07 The Other One.flac
7e77ed04f93a18c5feba32666234c9e3 *gd81-05-17 s2 t08 Drums.flac
8c537b648ca228d6f1b43d85335a6384 *gd81-05-17 s2 t09 Space.flac
6db2ba75b3aeebf546abc8f15d899ff0 *gd81-05-17 s2 t10 Saint Of Circumstance.flac
e8de418f35311370f3de1d74f7b51a6d *gd81-05-17 s2 t11 Wharf Rat.flac
9100a8bb71b3bfa0c4c350c538d6479d *gd81-05-17 s2 t12 Sugar Magnolia.flac
6e7c733f5d35eeddd5f63124bf8245d8 *gd81-05-17 s2 t13 Satisfaction.flac

Comments
Add Comment
Other Sources (comments)
Possible Jim Wise... (3) flac16; Recording by... (0) flac16;set2:... (0) flac16; Source Info:... (0) flac24; Jim Wise's... (0) flac16/48kHz; Jim... (0)
Date User Comment