Browse Collections Artists Sources   Search Dates

Add Show    List Management    Help


Grateful Dead 07/08/81
Kiel Auditorium, St. Louis, MO
Comments Add Comment    Source Collectors    Add to Collection    Add to Want List    History
Source # 139979 Other Sources
Entered by Matt Vernon
Checksums ffp , flac-md5
Disc Counts 0 / 0
Media Size
Date Circulated
Date Added
11/20/2017
11/20/2017
Source Summary flac16; Source Info: Frank Streeter's Master FOB Audience Cassette; Sennheiser 421 mics > Sony TC-D5M (TDK MA90); Transfer Info: Cassette Master (Nakamichi CR-7A) > Tascam DA-3000 (DSF 1-bit/5.8 MHz)> KORG AudioGate 4 > Adobe Audition 3.0> TLH flac2496 
  Archive
Source Information - Download Text | Download Zip
Grateful Dead
Kiel Auditorium
St. Louis, MO
Wednesday July 8, 1981

This is a 16/44 fileset. 24 bit to 16 bit via dBpoweramp

Source Info:
Frank Streeter's Master FOB Audience Cassette; Sennheiser 421 mics > Sony TC-D5M (TDK MA90)

Transfer Info:
Cassette Master (Nakamichi CR-7A) > Tascam DA-3000 (DSF 1-bit/5.8 MHz)> KORG AudioGate 4 > Adobe Audition 3.0> TLH flac2496

Notes:
- Thanks to Frank Streeter for the master recording
- Thanks to Charlie Miller for the transfer
- Thanks to the folks responsible for the shnid134091 nak300 source which supplies "Scarlet begonias > Fire On The Mountain" in its entirety, as well as a 0:27 patch in "Drums"
- Between song transitions smoothed

Transfer by Charlie Miller
Mastered by Scott Clugston
11/18/17

Set One:
s1 t01. Crowd / Tuning
s1 t02. Mississippi Half-Step Uptown Toodeloo ->
s1 t03. Feel Like A Stranger
s1 t04. Peggy O ->
s1 t05. Little Red Rooster
s1 t06. Althea
s1 t07. Me & My Uncle ->
s1 t08. Big River
s1 t19. Don't Ease Me In
s1 t10. New Minglewood Blues
s1 t11. China Cat Sunflower ->
s1 t12. I Know You Rider

Set Two:
s2 t01. Crowd /Tuning
s2 t02. Scarlet Begonias ->
s2 t03. Fire On The Mountain
s2 t04. Lost Sailor ->
s2 t05. Saint Of Circumstance ->
s2 t06. Franklin's Tower ->
          Jam ->
s2 t07. Drums ->
s2 t08. Space ->
s2 t09. Not Fade Away
s2 t10. Wharf Rat ->
s2 t11. Sugar Magnolia
Encore:
s2 t12. US Blues



     length     expanded size    cdr  WAVE problems  fmt   ratio  filename
     0:41.37        7319468 B   ---   --   ---xx   flac  0.5886  gd81-07-08 s1 t01 Crowd_Tuning.flac
     7:55.72       83959388 B   ---   --   ---xx   flac  0.6442  gd81-07-08 s1 t02 Mississippi Half-Step.flac
     7:59.39       84587372 B   ---   --   ---xx   flac  0.6430  gd81-07-08 s1 t03 Feel Like A Stranger.flac
     6:40.39       70651772 B   ---   --   ---xx   flac  0.6169  gd81-07-08 s1 t04 Peggy O.flac
     8:25.25       89140844 B   ---   --   ---xx   flac  0.6336  gd81-07-08 s1 t05 Little Red Rooster.flac
     8:41.00       91904444 B   ---   --   ---xx   flac  0.6284  gd81-07-08 s1 t06 Althea.flac
     2:59.70       31740284 B   ---   --   ---xx   flac  0.6386  gd81-07-08 s1 t07 Me & My Uncle.flac
     6:03.65       64186124 B   ---   --   ---xx   flac  0.6432  gd81-07-08 s1 t08 Big River.flac
     3:13.45       34151084 B   ---   --   ---xx   flac  0.6481  gd81-07-08 s1 t09 Don't Ease Me In.flac
     7:02.60       74581964 B   ---   --   ---xx   flac  0.6438  gd81-07-08 s1 t10 New Minglewood Blues.flac
     6:22.16       67422476 B   ---   --   ---xx   flac  0.6380  gd81-07-08 s1 t11 China Cat Sunflower.flac
     5:10.36       54768716 B   ---   --   ---xx   flac  0.6408  gd81-07-08 s1 t12 I Know You Rider.flac
     1:04.50       11407244 B   ---   --   ---xx   flac  0.5297  gd81-07-08 s2 t01 Crowd_Tuning.flac
     9:39.34      102215612 B   ---   --   ---xx   flac  0.6072  gd81-07-08 s2 t02 Scarlet Begonias.flac
    10:53.58      115325660 B   ---   --   ---xx   flac  0.6100  gd81-07-08 s2 t03 Fire On The Mountain.flac
     6:54.05       73041404 B   ---   --   ---xx   flac  0.6143  gd81-07-08 s2 t04 Lost Sailor.flac
     6:43.32       71164508 B   ---   --   ---xx   flac  0.6543  gd81-07-08 s2 t05 Saint Of Circumstance.flac
    14:29.02      153296348 B   ---   --   ---xx   flac  0.6179  gd81-07-08 s2 t06 Franklin's Tower.flac
     7:39.49       81082892 B   ---   --   ---xx   flac  0.5783  gd81-07-08 s2 t07 Drums.flac
     3:45.39       39781772 B   ---   --   ---xx   flac  0.5597  gd81-07-08 s2 t08 Space.flac
     6:53.72       73022588 B   ---   --   ---xx   flac  0.6188  gd81-07-08 s2 t09 Not Fade Away.flac
     9:08.45       96773084 B   ---   --   ---xx   flac  0.5972  gd81-07-08 s2 t10 Wharf Rat.flac
     9:47.69      103709132 B   ---   --   ---xx   flac  0.6507  gd81-07-08 s2 t11 Sugar Magnolia.flac
     5:17.04       55928252 B   ---   --   ---xx   flac  0.6377  gd81-07-08 s2 t12 US Blues.flac
   163:33.63     1731162432 B                            0.6240  (24 files)

No errors occured.


Show Checksums
ffp
gd81-07-08 s1 t01 Crowd_Tuning.flac:735b91683d88bec285bd232876bce05b
gd81-07-08 s1 t02 Mississippi Half-Step.flac:13714d7e97f8a146938e922dfb2131df
gd81-07-08 s1 t03 Feel Like A Stranger.flac:b977000794bd70243447db052559207f
gd81-07-08 s1 t04 Peggy O.flac:364ba355183f04ff82774c13fe399f47
gd81-07-08 s1 t05 Little Red Rooster.flac:af01ff6a690843be36452b8b9068ab9c
gd81-07-08 s1 t06 Althea.flac:6fce1e029126b2d7d8102c28b9ff0935
gd81-07-08 s1 t07 Me & My Uncle.flac:7e10e7f17d1ed9762cf5d690bdc125ab
gd81-07-08 s1 t08 Big River.flac:a9d6a2d6f9d8384b9c887d270536da68
gd81-07-08 s1 t09 Don't Ease Me In.flac:e8853b311d71b0f0c1ecec2a8227ec04
gd81-07-08 s1 t10 New Minglewood Blues.flac:236df5acfe9d3a43f593bcf9ebb062b6
gd81-07-08 s1 t11 China Cat Sunflower.flac:c1633db17a8278915b5f9423a0e5bb66
gd81-07-08 s1 t12 I Know You Rider.flac:4872596c2c4e48d7c99ce397a5abcc30
gd81-07-08 s2 t01 Crowd_Tuning.flac:e6bdd1b142bf25fbc567062478806e6e
gd81-07-08 s2 t02 Scarlet Begonias.flac:ff80527bb7a8e66b1ee90073bb4a93b1
gd81-07-08 s2 t03 Fire On The Mountain.flac:60791d34a84bcfdf677d05798275aca3
gd81-07-08 s2 t04 Lost Sailor.flac:1d1ebcd53969b5e99c88b250c44eb573
gd81-07-08 s2 t05 Saint Of Circumstance.flac:cb91c3c8af105875295fb46c0e16b915
gd81-07-08 s2 t06 Franklin's Tower.flac:81b978f61ec5ec2675f9ed5d5887371d
gd81-07-08 s2 t07 Drums.flac:a8bd9e81ff73e34292cfd8dfa6e0b59f
gd81-07-08 s2 t08 Space.flac:479601e0e3f80db1366c332dc149c64c
gd81-07-08 s2 t09 Not Fade Away.flac:dee48e4b68730ac5bd6ceb6057134706
gd81-07-08 s2 t10 Wharf Rat.flac:888fb2ed550c05cb30518e3517361028
gd81-07-08 s2 t11 Sugar Magnolia.flac:5b1fa0d2c761462a9e4c603a1b138fba
gd81-07-08 s2 t12 US Blues.flac:30fa6939e185e14411797d006b9fc259
flac-md5
c3e31eceb5bf8e98a8dff6d5b6f280ad *gd81-07-08 s1 t01 Crowd_Tuning.flac
8644fb5506189a524f5fa3b2f69b6fae *gd81-07-08 s1 t02 Mississippi Half-Step.flac
4f8cd47372fed88d558a762b58a67e98 *gd81-07-08 s1 t03 Feel Like A Stranger.flac
5f2f51e74dea283e7d8252f44d5407af *gd81-07-08 s1 t04 Peggy O.flac
89ec51f616052f1aee9e7776fb2571a4 *gd81-07-08 s1 t05 Little Red Rooster.flac
f420a3a6a27f7c5cd9fb7f1b0d6923d9 *gd81-07-08 s1 t06 Althea.flac
f1ceab5eba38c5f4bb57c6266fbcc027 *gd81-07-08 s1 t07 Me & My Uncle.flac
8dbaf541a0efb0149969a4927930537b *gd81-07-08 s1 t08 Big River.flac
34fbc2950ee61a59578f9e722fd40ea3 *gd81-07-08 s1 t09 Don't Ease Me In.flac
628e914eba0a8e847d4fde22d6fe0292 *gd81-07-08 s1 t10 New Minglewood Blues.flac
23953cacdaa4b8d779ce2b5be9951f1e *gd81-07-08 s1 t11 China Cat Sunflower.flac
987407a7e0fb6457997b77f570657058 *gd81-07-08 s1 t12 I Know You Rider.flac
6b66d6c01b35ebad20dd88eb37c18e48 *gd81-07-08 s2 t01 Crowd_Tuning.flac
b9be18d611074dd5b0ae4a5b22139bd2 *gd81-07-08 s2 t02 Scarlet Begonias.flac
336181809e15ef49c25b0675600b5d2b *gd81-07-08 s2 t03 Fire On The Mountain.flac
04bbe8ea09b843cb6d6a4189f39a6f51 *gd81-07-08 s2 t04 Lost Sailor.flac
2c33dcc8080936f45e7a7e69a270bfce *gd81-07-08 s2 t05 Saint Of Circumstance.flac
d09709f3777c0e7c23d9996735229ff2 *gd81-07-08 s2 t06 Franklin's Tower.flac
4ba07e050fef1fac3540cebb3a6f5b24 *gd81-07-08 s2 t07 Drums.flac
bee17e1074b14b66580e44ed8345086b *gd81-07-08 s2 t08 Space.flac
a43acdef55d6fce43e7a819c5364e4ac *gd81-07-08 s2 t09 Not Fade Away.flac
3a7d75923df0b52ce03a7247bbf412f5 *gd81-07-08 s2 t10 Wharf Rat.flac
c967699039e1e64923d0c0787a26321c *gd81-07-08 s2 t11 Sugar Magnolia.flac
332c7099adaaef5058db1453e64ece75 *gd81-07-08 s2 t12 US Blues.flac

Comments
Add Comment
Other Sources (comments)
(FOB) Neumann... (1) flac24; AUD:... (0) flac16; AUD:... (0) flac24; Source Info:... (0)
Date User Comment