Browse Collections Artists Sources   Search Dates

Add Show    List Management    Help


Grateful Dead 07/08/81
Kiel Auditorium, St. Louis, MO
Comments Add Comment    Source Collectors    Add to Collection    Add to Want List    History
Source # 139980 Other Sources
Entered by Matt Vernon
Checksums ffp , flac-md5
Disc Counts 0 / 0
Media Size
Date Circulated
Date Added
11/20/2017
11/20/2017
Source Summary flac24; Source Info: Frank Streeter's Master FOB Audience Cassette; Sennheiser 421 mics > Sony TC-D5M (TDK MA90); Transfer Info: Cassette Master (Nakamichi CR-7A) > Tascam DA-3000 (DSF 1-bit/5.8 MHz)> KORG AudioGate 4 > Adobe Audition 3.0> TLH flac2496 
  Archive
Source Information - Download Text | Download Zip
Grateful Dead
Kiel Auditorium
St. Louis, MO
Wednesday July 8, 1981

Source Info:
Frank Streeter's Master FOB Audience Cassette; Sennheiser 421 mics > Sony TC-D5M (TDK MA90)

Transfer Info:
Cassette Master (Nakamichi CR-7A) > Tascam DA-3000 (DSF 1-bit/5.8 MHz)> KORG AudioGate 4 > Adobe Audition 3.0> TLH flac2496

Notes:
- Thanks to Frank Streeter for the master recording
- Thanks to Charlie Miller for the transfer
- Thanks to the folks responsible for the shnid134091 nak300 source which supplies "Scarlet begonias > Fire On The Mountain" in its entirety, as well as a 0:27 patch in "Drums"
- Between song transitions smoothed

Transfer by Charlie Miller
Mastered by Scott Clugston
11/18/17

Set One:
s1 t01. Crowd / Tuning
s1 t02. Mississippi Half-Step Uptown Toodeloo ->
s1 t03. Feel Like A Stranger
s1 t04. Peggy O ->
s1 t05. Little Red Rooster
s1 t06. Althea
s1 t07. Me & My Uncle ->
s1 t08. Big River
s1 t19. Don't Ease Me In
s1 t10. New Minglewood Blues
s1 t11. China Cat Sunflower ->
s1 t12. I Know You Rider

Set Two:
s2 t01. Crowd /Tuning
s2 t02. Scarlet Begonias ->
s2 t03. Fire On The Mountain
s2 t04. Lost Sailor ->
s2 t05. Saint Of Circumstance ->
s2 t06. Franklin's Tower ->
          Jam ->
s2 t07. Drums ->
s2 t08. Space ->
s2 t09. Not Fade Away
s2 t10. Wharf Rat ->
s2 t11. Sugar Magnolia
Encore:
s2 t12. US Blues



     length     expanded size    cdr  WAVE problems  fmt   ratio  filename
     0:41.493      23900204 B   cxx   --   ---xx   flac  0.6600  gd81-07-08 s1 t01 Crowd_Tuning.flac
     7:55.960     274153004 B   cxx   --   ---xx   flac  0.6897  gd81-07-08 s1 t02 Mississippi Half-Step.flac
     7:59.520     276203564 B   cxx   --   ---xx   flac  0.6900  gd81-07-08 s1 t03 Feel Like A Stranger.flac
     6:40.520     230699564 B   cxx   --   ---xx   flac  0.6793  gd81-07-08 s1 t04 Peggy O.flac
     8:25.333     291072044 B   cxx   --   ---xx   flac  0.6865  gd81-07-08 s1 t05 Little Red Rooster.flac
     8:41.000     300096044 B   cxx   --   ---xx   flac  0.6840  gd81-07-08 s1 t06 Althea.flac
     2:59.933     103641644 B   cxx   --   ---xx   flac  0.6867  gd81-07-08 s1 t07 Me & My Uncle.flac
     6:03.867     209587244 B   cxx   --   ---xx   flac  0.6889  gd81-07-08 s1 t08 Big River.flac
     3:13.600     111513644 B   cxx   --   ---xx   flac  0.6908  gd81-07-08 s1 t09 Don't Ease Me In.flac
     7:02.800     243532844 B   cxx   --   ---xx   flac  0.6895  gd81-07-08 s1 t10 New Minglewood Blues.flac
     6:22.213     220154924 B   cxx   --   ---xx   flac  0.6871  gd81-07-08 s1 t11 China Cat Sunflower.flac
     5:10.484     178838720 B   cxx   --   ---xx   flac  0.6882  gd81-07-08 s1 t12 I Know You Rider.flac
     1:04.667      37248044 B   cxx   --   ---xx   flac  0.5504  gd81-07-08 s2 t01 Crowd_Tuning.flac
     9:39.453     333765164 B   cxx   --   ---xx   flac  0.5997  gd81-07-08 s2 t02 Scarlet Begonias.flac
    10:53.773     376573484 B   cxx   --   ---xx   flac  0.6018  gd81-07-08 s2 t03 Fire On The Mountain.flac
     6:54.067     238502444 B   cxx   --   ---xx   flac  0.6765  gd81-07-08 s2 t04 Lost Sailor.flac
     6:43.427     232373804 B   cxx   --   ---xx   flac  0.6929  gd81-07-08 s2 t05 Saint Of Circumstance.flac
    14:29.027     500559404 B   cxx   --   ---xx   flac  0.6792  gd81-07-08 s2 t06 Franklin's Tower.flac
     7:39.653     264760364 B   cxx   --   ---xx   flac  0.6619  gd81-07-08 s2 t07 Drums.flac
     3:45.520     129899564 B   cxx   --   ---xx   flac  0.6565  gd81-07-08 s2 t08 Space.flac
     6:53.960     238441004 B   cxx   --   ---xx   flac  0.6805  gd81-07-08 s2 t09 Not Fade Away.flac
     9:08.600     315993644 B   cxx   --   ---xx   flac  0.6724  gd81-07-08 s2 t10 Wharf Rat.flac
     9:47.920     338641964 B   cxx   --   ---xx   flac  0.6937  gd81-07-08 s2 t11 Sugar Magnolia.flac
     5:17.042     182616308 B   cxx   --   ---xx   flac  0.6853  gd81-07-08 s2 t12 US Blues.flac
   163:33.833    5652768636 B                            0.6717  (24 files)

No errors occured.


Show Checksums
ffp
gd81-07-08 s1 t01 Crowd_Tuning.flac:67c852a6470ed74dcabeaa62f1d8c659
gd81-07-08 s1 t02 Mississippi Half-Step.flac:27855317fd701e8fb7209f3cd25ecf66
gd81-07-08 s1 t03 Feel Like A Stranger.flac:67076a40317aaa4b2627ad0c6d5215e9
gd81-07-08 s1 t04 Peggy O.flac:ebf8b8a823c03f4efef2259e48a881bd
gd81-07-08 s1 t05 Little Red Rooster.flac:16ab40b89ad19741e3f7630f80e9ffbd
gd81-07-08 s1 t06 Althea.flac:4637c0e3811baf828699f44996ef35ef
gd81-07-08 s1 t07 Me & My Uncle.flac:d7bfa345810634f13c66779a94e86e96
gd81-07-08 s1 t08 Big River.flac:65fede65c0e6eae3b1649e6a21ec1121
gd81-07-08 s1 t09 Don't Ease Me In.flac:f6bc82b16f562928638fa9ed87880cbf
gd81-07-08 s1 t10 New Minglewood Blues.flac:c0741c46eb7315166359c99b557d677b
gd81-07-08 s1 t11 China Cat Sunflower.flac:c7391fe2f99aed318e92ec8d2154c8af
gd81-07-08 s1 t12 I Know You Rider.flac:b5d426bb6b0b36df1fb823b8c2dedabf
gd81-07-08 s2 t01 Crowd_Tuning.flac:449f8308a9622d32c7e6db34c9e660a1
gd81-07-08 s2 t02 Scarlet Begonias.flac:36c28e40f224bbe79f0126a7af7311df
gd81-07-08 s2 t03 Fire On The Mountain.flac:8c51bdb0e069d38355c25b882ad2bee2
gd81-07-08 s2 t04 Lost Sailor.flac:d18af54b9c0f3548ca4ff78e74b29aa7
gd81-07-08 s2 t05 Saint Of Circumstance.flac:3b40500d9bfa2139bb00d194af610e27
gd81-07-08 s2 t06 Franklin's Tower.flac:155241f91c37f6ea26a1ce9930dc1077
gd81-07-08 s2 t07 Drums.flac:d15dc0b5c127242344c07a83614e9ab4
gd81-07-08 s2 t08 Space.flac:c1ed7d0ff3cc7f2545a35dd6bcc6ed5a
gd81-07-08 s2 t09 Not Fade Away.flac:e92ae4066d8110443dd058abd28c51fd
gd81-07-08 s2 t10 Wharf Rat.flac:1652514c2d0cb388c79bf4273976e976
gd81-07-08 s2 t11 Sugar Magnolia.flac:7d6af001f6dbfbc99d7687c874b9cb58
gd81-07-08 s2 t12 US Blues.flac:c136324649ccdc50eae50969ec924ce0
flac-md5
96f7c817055d1afeefc4c5c56d7f4676 *gd81-07-08 s1 t01 Crowd_Tuning.flac
149e94b4009c1f3797db724485d5a414 *gd81-07-08 s1 t02 Mississippi Half-Step.flac
8a08b6100a7f8422e97943226cd9e229 *gd81-07-08 s1 t03 Feel Like A Stranger.flac
6226aa3c44e8ba5df747ae0549e40cab *gd81-07-08 s1 t04 Peggy O.flac
9ab403573358979e14367a77e30f5740 *gd81-07-08 s1 t05 Little Red Rooster.flac
7d3f5ee7142a1f6aa514bbbcec74434a *gd81-07-08 s1 t06 Althea.flac
e23ccb8daf4edeedaf6f5c4efc524754 *gd81-07-08 s1 t07 Me & My Uncle.flac
1cfea9a29f00c5a383b342aebefcc478 *gd81-07-08 s1 t08 Big River.flac
4218dcf37be3414d414168da58447ba7 *gd81-07-08 s1 t09 Don't Ease Me In.flac
13fc1828f6a6adb870fbfbfb5cafef71 *gd81-07-08 s1 t10 New Minglewood Blues.flac
0c07401c128133c310cfebc77c5fc650 *gd81-07-08 s1 t11 China Cat Sunflower.flac
7b0801443230ffc74429eb174d616fc7 *gd81-07-08 s1 t12 I Know You Rider.flac
7dd02083d4ba53d6e5955e5d599cf35b *gd81-07-08 s2 t01 Crowd_Tuning.flac
5618577ff7683eb792697be16861b60c *gd81-07-08 s2 t02 Scarlet Begonias.flac
5cacbf246dee1b3cfe8d8b2a5cf13b8a *gd81-07-08 s2 t03 Fire On The Mountain.flac
b6df8a7fe88ea79ecc1ac2e857e68590 *gd81-07-08 s2 t04 Lost Sailor.flac
53d0d44bfc751c82c860441eb39b0d92 *gd81-07-08 s2 t05 Saint Of Circumstance.flac
d84478fab5607816761df6255bce5dce *gd81-07-08 s2 t06 Franklin's Tower.flac
599ef772c82e2f464dafd5a080714575 *gd81-07-08 s2 t07 Drums.flac
e3ef9024c542ff4a694a94663cae5b25 *gd81-07-08 s2 t08 Space.flac
cf47c2ed7a487240b27574ee5e6a4e2c *gd81-07-08 s2 t09 Not Fade Away.flac
fff4ef58e93bbe1c2d6bf7c69d835bdb *gd81-07-08 s2 t10 Wharf Rat.flac
f3a2a3b6a46d9baca249a6882ed5fcf8 *gd81-07-08 s2 t11 Sugar Magnolia.flac
12717323b022be6d1c54216163cacdcb *gd81-07-08 s2 t12 US Blues.flac

Comments
Add Comment
Other Sources (comments)
(FOB) Neumann... (1) flac24; AUD:... (0) flac16; AUD:... (0) flac16; Source Info:... (0)
Date User Comment