Browse Collections Artists Sources   Search Dates

Add Show    List Management    Help


Grateful Dead 07/26/87
Anaheim Stadium, Anaheim, CA
Comments Add Comment    Source Collectors    Add to Collection    Add to Want List    History
Source # 139993 Other Sources
Entered by Matt Vernon
Checksums ffp , flac-md5
Disc Counts 0 / 0
Media Size
Uncompressed: 1.71 GB (1833349820 bytes)
Date Circulated
Date Added
11/21/2017
11/21/2017
Source Summary flac16; Source: (FOB) AKG C460 (omni) > PCM F1 > DAT (44k) - Provided by Rich Gastwirt; Transfer: Dat > Sony PCM-R500 > Sound Devices 744T > wav 16/44 - Transfered by Charlie Miller; Lineage: wav > iZotope RX6 Advanced > iZotope Ozone 5 Advanced > CD Wave > TLH > Flac 16; edited and mastered SIRMick November 2017 
  Archive
Source Information - Download Text | Download Zip
Grateful Dead and Bob Dylan
Anaheim Stadium
Anaheim, CA
07/26/1987


Source: (FOB) AKG C460 (omni)  > PCM F1 > DAT (44k) - Provided by Rich Gastwirt
Transfer: Dat > Sony PCM-R500 > Sound Devices 744T > wav 16/44 - Transfered by Charlie Miller
Lineage: wav > iZotope RX6 Advanced > iZotope Ozone 5 Advanced > CD Wave > TLH > Flac 16



Set II

01   tuning
02   Shakedown Street
03   Looks Like Rain >
04   Terrapin Station >
05   Drums >
06   Space >
07   The Other One >
08   Stella Blue >
09   Throwing Stones >
10   Not Fade Away


Set III

01   Mr. Tambourine Man
02   Dead Man, Dead Man
03   Maggie's Farm
04   Simple Twist Of Fate
05   Watching The River Flow
06   It's All Over Now, Baby Blue
07   Chimes Of Freedom
08   Queen Jane Approximately
09   Stuck Inside Of Mobile With The Memphis Blues Again
10   Ballad Of A Thin Man
11   Rainy Day Women #12 And #35
12   Gotta Serve Somebody
13   All Along The Watchtower

encore

14   Touch Of Grey
15   Knockin' On Heaven's Door



Thanks to Rich and Charlie


edited and mastered
SIRMick
November 2017


shntool output:

    length     expanded size    cdr  WAVE problems  fmt   ratio  filename
     0:49.58        8780060 B   ---   --   ---xx   flac  0.4662  gd1987-07-26s2t01.flac
    11:50.56      125375756 B   ---   --   ---xx   flac  0.5830  gd1987-07-26s2t02.flac
     8:23.29       88797452 B   ---   --   ---xx   flac  0.5411  gd1987-07-26s2t03.flac
    11:46.38      124627820 B   ---   --   ---xx   flac  0.5648  gd1987-07-26s2t04.flac
     8:46.27       92849948 B   ---   --   ---xx   flac  0.5152  gd1987-07-26s2t05.flac
     6:24.57       67871708 B   ---   --   ---xx   flac  0.4471  gd1987-07-26s2t06.flac
     6:41.20       70783484 B   ---   --   ---xx   flac  0.5481  gd1987-07-26s2t07.flac
     7:17.63       77235020 B   ---   --   ---xx   flac  0.5059  gd1987-07-26s2t08.flac
     8:48.59       93278012 B   ---   --   ---xx   flac  0.5807  gd1987-07-26s2t09.flac
     8:16.20       87541484 B   ---   --   ---xx   flac  0.5466  gd1987-07-26s2t10.flac
     5:38.33       59700860 B   ---   --   ---xx   flac  0.5646  gd1987-07-26s3t01.flac
     6:28.02       68447948 B   ---   --   ---xx   flac  0.5716  gd1987-07-26s3t02.flac
     5:08.24       54387692 B   ---   --   ---xx   flac  0.5849  gd1987-07-26s3t03.flac
     6:17.44       66606332 B   ---   --   ---xx   flac  0.5271  gd1987-07-26s3t04.flac
     4:33.49       48272492 B   ---   --   ---xx   flac  0.6012  gd1987-07-26s3t05.flac
     6:26.43       68191580 B   ---   --   ---xx   flac  0.5634  gd1987-07-26s3t06.flac
     7:34.53       80210300 B   ---   --   ---xx   flac  0.5456  gd1987-07-26s3t07.flac
     4:23.07       46409708 B   ---   --   ---xx   flac  0.5595  gd1987-07-26s3t08.flac
     7:25.05       78509804 B   ---   --   ---xx   flac  0.6039  gd1987-07-26s3t09.flac
     6:54.06       73043756 B   ---   --   ---xx   flac  0.5687  gd1987-07-26s3t10.flac
     5:20.33       56525660 B   ---   --   ---xx   flac  0.5870  gd1987-07-26s3t11.flac
     6:15.21       66199436 B   ---   --   ---xx   flac  0.5750  gd1987-07-26s3t12.flac
     8:30.50       90081644 B   ---   --   ---xx   flac  0.5859  gd1987-07-26s3t13.flac
     6:28.55       68572604 B   ---   --   ---xx   flac  0.6012  gd1987-07-26s3t14.flac
     6:42.58       71049260 B   ---   --   ---xx   flac  0.5279  gd1987-07-26s3t15.flac
   173:13.10     1833349820 B                            0.5576  (25 files)


Show Checksums
ffp
gd1987-07-26s2t01.flac:a43662554f6711dd17d635f898f4b895
gd1987-07-26s2t02.flac:0796f06c438349b915c7239e939922a9
gd1987-07-26s2t03.flac:7ef89a85f6bb21abe4ad9bec543fa2a2
gd1987-07-26s2t04.flac:fc242c8f74cf2cb10f79a024bf4e9b61
gd1987-07-26s2t05.flac:3e1173f99dbf0fa88bd54d50800397b3
gd1987-07-26s2t06.flac:7595d5184ea75d8729b7f4c3783d213a
gd1987-07-26s2t07.flac:043d2601666fa3211fcbe6a8f2b614f7
gd1987-07-26s2t08.flac:4dda3390d99e243a7a66b85a6df1a6cd
gd1987-07-26s2t09.flac:5343c12bfc95878205e74b58c78693b5
gd1987-07-26s2t10.flac:d4fe96f2e0ddc143dcef1f9e398f7fa3
gd1987-07-26s3t01.flac:845d1c7eec64c55f171e78abeb681cba
gd1987-07-26s3t02.flac:77299f78d9899dde7b03b8f5c10196d7
gd1987-07-26s3t03.flac:a69a4907720df7d1cb2d8bf537738604
gd1987-07-26s3t04.flac:751ee6b3bf7d6031d345137879e33463
gd1987-07-26s3t05.flac:3bff668d507c0330ef72f7ceeccd6c07
gd1987-07-26s3t06.flac:4c5b22bb3161a9dbeb1054cf160df89c
gd1987-07-26s3t07.flac:ae64ac2e26275c64ef371e2afe32ca1b
gd1987-07-26s3t08.flac:77352fe87841637ec33757eea033bcf6
gd1987-07-26s3t09.flac:e4fe7cc258b3bbb8b7cd600d0b19537f
gd1987-07-26s3t10.flac:7c13dbebb83bfee89504563157960a13
gd1987-07-26s3t11.flac:22bcfd22d0271a41a6716999f8919250
gd1987-07-26s3t12.flac:3678026ca8b5d6047783a4995986f98a
gd1987-07-26s3t13.flac:12eea349be9596e98334592777b915b8
gd1987-07-26s3t14.flac:fddb4ceeef3ec3f05b2c7d6dd7e0aff7
gd1987-07-26s3t15.flac:dd52f4a7b91fc44a45521e07645a20a3
flac-md5
41a424f065c86cdaabb5fd8fb1e9591d *gd1987-07-26s2t01.flac
1e821020aa3b91f03d4dcb18f509c438 *gd1987-07-26s2t02.flac
e5e5301a3fcce5eafd03c92242af5fa4 *gd1987-07-26s2t03.flac
9541b0d90e29c537735ec1abc7d2ee71 *gd1987-07-26s2t04.flac
1540d01acdd38d23ab4edba51750d15f *gd1987-07-26s2t05.flac
8467f2dcfbfcb4e63dd5d5d888e1a010 *gd1987-07-26s2t06.flac
fc36fb48afc12ce58daacad92df7ee6c *gd1987-07-26s2t07.flac
5003a0cb2342563101372ee145967b86 *gd1987-07-26s2t08.flac
fd76950b396a4e1f0415b25e5e13b8fd *gd1987-07-26s2t09.flac
4520c560c5cefa060cf2d6e0febcc710 *gd1987-07-26s2t10.flac
7b6d7a59f78c3ff9a6d8507f11259677 *gd1987-07-26s3t01.flac
17bbfa10ddcec6c4dad3e2eab2dd86e0 *gd1987-07-26s3t02.flac
244fd579651ee1eb4961c7ec75d2835b *gd1987-07-26s3t03.flac
a0411eb2dd30d1529e27dc40ff52febd *gd1987-07-26s3t04.flac
24a2c8e801370f01e431064976dfbc1c *gd1987-07-26s3t05.flac
b6967db3ce87ec4baea8978dafde471b *gd1987-07-26s3t06.flac
5a9f25a582781a6d21721f2610572758 *gd1987-07-26s3t07.flac
9811cd484f284f92434c27cca271ee47 *gd1987-07-26s3t08.flac
ec14d07b8b4d6bcb7e008d00492d8ca5 *gd1987-07-26s3t09.flac
de68434dcfcf3cd7babee363f20ed781 *gd1987-07-26s3t10.flac
9c8c8c3f19d51330f23f204ffc99f437 *gd1987-07-26s3t11.flac
15d9b93fa91e41c1f19c3055f17c93ca *gd1987-07-26s3t12.flac
ee9511c588ff02ffd2ad9c3dba18d840 *gd1987-07-26s3t13.flac
981a94694856387ad1ce4c11cc8364a5 *gd1987-07-26s3t14.flac
86e3d310b33e5dcf19918e2451d19911 *gd1987-07-26s3t15.flac

Comments
Add Comment
Other Sources (comments)
Soundboard > ? > SHN... (2) flac16; Modified Nak... (2) flac16; Source: 1x... (0) flac16; Set 3... (0) flac24; Recording... (0) flac16; Recording... (0)
Date User Comment