Browse Collections Artists Sources   Search Dates

Add Show    List Management    Help


Grateful Dead 08/30/81
Compton Terrace Amphitheatre, Tempe, AZ
Comments Add Comment    Source Collectors    Add to Collection    Add to Want List    History
Source # 139996 Other Sources
Entered by Matt Vernon
Checksums ffp , flac-md5
Disc Counts 0 / 0
Media Size
Date Circulated
Date Added
11/21/2017
11/21/2017
Source Summary flac16; Source Info: Frank Streeter's Master FOB Audience Cassette; Sennheiser 421 mics > Sony TC-D5M (TDK MA90); Transfer Info: Cassette Master (Nakamichi CR-7A) > Tascam DA-3000 (DSF 1-bit/5.8 MHz)> KORG AudioGate 4 > Adobe Audition 3.0> TLH flac2496 
  Archive
Source Information - Download Text | Download Zip
Grateful Dead
Compton Terrace Amphitheatre
Tempe, AZ
Sunday August 30, 1981

This is a 16/44 fileset. 24 bit to 16 bit via dBpoweramp

Source Info:
Frank Streeter's Master FOB Audience Cassette; Sennheiser 421 mics > Sony TC-D5M (TDK MA90)

Transfer Info:
Cassette Master (Nakamichi CR-7A) > Tascam DA-3000 (DSF 1-bit/5.8 MHz)> KORG AudioGate 4 > Adobe Audition 3.0> TLH flac2496

Notes:
- Thanks to Frank Streeter for the master recording
- Thanks to Charlie Miller for the transfer
- Thanks to the folks responsible for the shnid1049796 nak700 source which supplies "Samson & Delilah" in its entirety, as well as a 0:49 patch in "Drums"
- Between song transitions smoothed
- "Other One" space included in "The Other One"

Transfer by Charlie Miller
Mastered by Scott Clugston
11/18/17

Set One:
s1 t01. Crowd / Tuning
s1 t02. Mississippi Half-Step Uptown Toodeloo ->
s1 t03. Franklin's Tower ->
s1 t04. New Minglewood Blues
s1 t05. Tennessee Jed
s1 t06. Mama Tried ->
s1 t07. Mexicali Blues
s1 t08. It Must Have Been The Roses
s1 t19. Beat It On Down The Line
s1 t10. Cumberland Blues ->
s1 t11. Looks Like Rain
s1 t12. Might as Well

Set Two:
s2 t01. Samson & Delilah
s2 t02. Ship Of Fools
s2 t03. Estimated Prophet
s2 t04. He's Gone ->
s2 t05. Drums ->
s2 t06. Space ->
s2 t07. The Other One ->
s2 t08. Stella Blue ->
s2 t09. Going Down The Road Feeling Bad ->
s2 t10. Good Lovin'
Encore:
s2 t11. Don't Ease Me In




    length     expanded size    cdr  WAVE problems  fmt   ratio  filename
     0:48.65        8620124 B   ---   --   ---xx   flac  0.5169  gd81-08-30 s1 t01 Crowd_Tuning.flac
     8:34.31       90742556 B   ---   --   ---xx   flac  0.6338  gd81-08-30 s1 t02 Mississippi Half-Step.flac
     9:22.43       99237980 B   ---   --   ---xx   flac  0.6384  gd81-08-30 s1 t03 Franklin's Tower.flac
     6:59.29       73979852 B   ---   --   ---xx   flac  0.6478  gd81-08-30 s1 t04 New Minglewood Blues.flac
     8:29.42       89886428 B   ---   --   ---xx   flac  0.6327  gd81-08-30 s1 t05 Tennessee Jed.flac
     2:40.17       28264028 B   ---   --   ---xx   flac  0.6481  gd81-08-30 s1 t06 Mama Tried.flac
     4:49.49       51094892 B   ---   --   ---xx   flac  0.6437  gd81-08-30 s1 t07 Mexicali Blues.flac
     6:52.60       72817964 B   ---   --   ---xx   flac  0.6098  gd81-08-30 s1 t08 It Must Have Been The Roses.flac
     3:13.23       34099340 B   ---   --   ---xx   flac  0.6557  gd81-08-30 s1 t09 Beat It On Down The Line.flac
     5:29.46       58143836 B   ---   --   ---xx   flac  0.6479  gd81-08-30 s1 t10 Cumberland Blues.flac
     8:22.31       88625756 B   ---   --   ---xx   flac  0.6179  gd81-08-30 s1 t11 Looks Like Rain.flac
     4:28.50       47392844 B   ---   --   ---xx   flac  0.6639  gd81-08-30 s1 t12 Might As Well.flac
     9:04.35       96043964 B   ---   --   ---xx   flac  0.6470  gd81-08-30 s2 t01 Samson & Delilah.flac
     8:10.31       86508956 B   ---   --   ---xx   flac  0.6064  gd81-08-30 s2 t02 Ship Of Fools.flac
    12:26.37      131681468 B   ---   --   ---xx   flac  0.6417  gd81-08-30 s2 t03 Estimated Prophet.flac
    14:59.01      158585996 B   ---   --   ---xx   flac  0.6093  gd81-08-30 s2 t04 He's Gone.flac
     9:42.21      102714236 B   ---   --   ---xx   flac  0.5874  gd81-08-30 s2 t05 Drums.flac
     5:00.36       53004716 B   ---   --   ---xx   flac  0.5739  gd81-08-30 s2 t06 Space.flac
     9:49.59      104038412 B   ---   --   ---xx   flac  0.6377  gd81-08-30 s2 t07 The Other One.flac
    10:19.49      109306892 B   ---   --   ---xx   flac  0.5854  gd81-08-30 s2 t08 Stella Blue.flac
     6:04.68       64369580 B   ---   --   ---xx   flac  0.6448  gd81-08-30 s2 t09 Going Down The Road Feeling Bad.flac
     8:30.05       89975804 B   ---   --   ---xx   flac  0.6467  gd81-08-30 s2 t10 Good Lovin'.flac
     3:15.22       34449788 B   ---   --   ---xx   flac  0.6278  gd81-08-30 s2 t11 Don't Ease Me In.flac
   167:34.25     1773585412 B                            0.6259  (23 files)

No errors occured.


Show Checksums
ffp
gd81-08-30 s1 t01 Crowd_Tuning.flac:64a457a800443305022bf15d3eda3b43
gd81-08-30 s1 t02 Mississippi Half-Step.flac:e86d9e5a625a058af4e2c3af193b8b04
gd81-08-30 s1 t03 Franklin's Tower.flac:da965e09c8f1179dfaaa3afd8bf1885a
gd81-08-30 s1 t04 New Minglewood Blues.flac:db498007dfa4d2ce5466f809b77347b8
gd81-08-30 s1 t05 Tennessee Jed.flac:305e8d714e371cd2721f85692f3c2cb1
gd81-08-30 s1 t06 Mama Tried.flac:0d314415ce7c6d080051481c047f1bcc
gd81-08-30 s1 t07 Mexicali Blues.flac:4d50508d0f01bab871eab3561518bf4a
gd81-08-30 s1 t08 It Must Have Been The Roses.flac:8a0d154e26578d5e8ab34e08c3dd8ac0
gd81-08-30 s1 t09 Beat It On Down The Line.flac:3b95aa4d505ddddf06b736485bea2620
gd81-08-30 s1 t10 Cumberland Blues.flac:65adea577ef8a20e0c4822caf6cc6bdc
gd81-08-30 s1 t11 Looks Like Rain.flac:885c64b0c6607a612689267d41693fa2
gd81-08-30 s1 t12 Might As Well.flac:6be03f22f9b1f636ea9b70c297d944e3
gd81-08-30 s2 t01 Samson & Delilah.flac:20209c973bfbc4ed65ad10190e92cf0d
gd81-08-30 s2 t02 Ship Of Fools.flac:30263035302f109069a7c1fa6b1e4a75
gd81-08-30 s2 t03 Estimated Prophet.flac:66d9082ded29ea99b02ea31177117b3c
gd81-08-30 s2 t04 He's Gone.flac:a37e9b889eb0bfb318cc81852103ad31
gd81-08-30 s2 t05 Drums.flac:a1c45b68996445aac9f6014b206b63a8
gd81-08-30 s2 t06 Space.flac:5017365f0e6988d406abad08e7151cea
gd81-08-30 s2 t07 The Other One.flac:caecb93865e09c3b5bce425e9745b5a5
gd81-08-30 s2 t08 Stella Blue.flac:101fe76772c8f2aeddb4c7773558f8cf
gd81-08-30 s2 t09 Going Down The Road Feeling Bad.flac:41d14a33c9d8a43535a609bc10e0e073
gd81-08-30 s2 t10 Good Lovin'.flac:70add8572bc60762b376e2bce62ca69c
gd81-08-30 s2 t11 Don't Ease Me In.flac:c73bbf27d3ab38b29cbc66858059ffee
flac-md5
ece72b43f0e468154690cb39c2e7367e *gd81-08-30 s1 t01 Crowd_Tuning.flac
a3f4fc46650adfd3ce75f579c623f093 *gd81-08-30 s1 t02 Mississippi Half-Step.flac
af9afb235f7022e8bc935c9e0c338aed *gd81-08-30 s1 t03 Franklin's Tower.flac
957f4ee86da831767beb4c9ae2e84ada *gd81-08-30 s1 t04 New Minglewood Blues.flac
6451878b4eee091812d0d482b053a47f *gd81-08-30 s1 t05 Tennessee Jed.flac
e4d80e6add29dccfc4a62d2b4e601c8c *gd81-08-30 s1 t06 Mama Tried.flac
6429af5a9ae156f8046490874868a859 *gd81-08-30 s1 t07 Mexicali Blues.flac
cf18037945c3b92321a61ca1783b39f9 *gd81-08-30 s1 t08 It Must Have Been The Roses.flac
9d62b15d49db699fab07fbf861186c9b *gd81-08-30 s1 t09 Beat It On Down The Line.flac
e0dacdcdd9c0c3c4034e5cfd20951105 *gd81-08-30 s1 t10 Cumberland Blues.flac
472f880508ed0666aec5ad1107774f8c *gd81-08-30 s1 t11 Looks Like Rain.flac
34d976af98b29bdcfbf2c02bb821c860 *gd81-08-30 s1 t12 Might As Well.flac
460d9627ae1d91bda2bf3a003277514a *gd81-08-30 s2 t01 Samson & Delilah.flac
108dc6a9c742159ae28e71057473c5cc *gd81-08-30 s2 t02 Ship Of Fools.flac
8e5c7c3fe88bc30af0144f383bb827c1 *gd81-08-30 s2 t03 Estimated Prophet.flac
f5c17074795bbe0d0669aaa5e4ad539f *gd81-08-30 s2 t04 He's Gone.flac
b629c204e53be355226c333144cbe02b *gd81-08-30 s2 t05 Drums.flac
cb058cb3e3402802595bd240797d7a60 *gd81-08-30 s2 t06 Space.flac
cd60a621edac4099864767574641cdbe *gd81-08-30 s2 t07 The Other One.flac
737aa3c327dd31249bd449420030c614 *gd81-08-30 s2 t08 Stella Blue.flac
766a4133eeddd7a23c7d2c870dc18118 *gd81-08-30 s2 t09 Going Down The Road Feeling Bad.flac
4bb0336a26df2aeaeb4e53e45c8cbebd *gd81-08-30 s2 t10 Good Lovin'.flac
76deab02486303b32ea892279b1ce0af *gd81-08-30 s2 t11 Don't Ease Me In.flac

Comments
Add Comment
Other Sources (comments)
FOB Senn... (0) flac16; SBD ->... (0) flac16; Pitch and... (0) flac16; Recording... (0) flac24; Recording... (0) flac16; Recording... (0) flac24; source: aud... (0) flac16; source: aud... (0) flac24; Source Info:... (0)
Date User Comment