Browse Collections Artists Sources   Search Dates

Add Show    List Management    Help


Grateful Dead 08/30/81
Compton Terrace Amphitheatre, Tempe, AZ
Comments Add Comment    Source Collectors    Add to Collection    Add to Want List    History
Source # 139997 Other Sources
Entered by Matt Vernon
Checksums ffp , flac-md5
Disc Counts 0 / 0
Media Size
Date Circulated
Date Added
11/21/2017
11/21/2017
Source Summary flac24; Source Info: Frank Streeter's Master FOB Audience Cassette; Sennheiser 421 mics > Sony TC-D5M (TDK MA90); Transfer Info: Cassette Master (Nakamichi CR-7A) > Tascam DA-3000 (DSF 1-bit/5.8 MHz)> KORG AudioGate 4 > Adobe Audition 3.0> TLH flac2496 
  Archive
Source Information - Download Text | Download Zip
Grateful Dead
Compton Terrace Amphitheatre
Tempe, AZ
Sunday August 30, 1981

Source Info:
Frank Streeter's Master FOB Audience Cassette; Sennheiser 421 mics > Sony TC-D5M (TDK MA90)

Transfer Info:
Cassette Master (Nakamichi CR-7A) > Tascam DA-3000 (DSF 1-bit/5.8 MHz)> KORG AudioGate 4 > Adobe Audition 3.0> TLH flac2496

Notes:
- Thanks to Frank Streeter for the master recording
- Thanks to Charlie Miller for the transfer
- Thanks to the folks responsible for the shnid1049796 nak700 source which supplies "Samson & Delilah" in its entirety, as well as a 0:49 patch in "Drums"
- Between song transitions smoothed
- "Other One" space included in "The Other One"

Transfer by Charlie Miller
Mastered by Scott Clugston
11/18/17

Set One:
s1 t01. Crowd / Tuning
s1 t02. Mississippi Half-Step Uptown Toodeloo ->
s1 t03. Franklin's Tower ->
s1 t04. New Minglewood Blues
s1 t05. Tennessee Jed
s1 t06. Mama Tried ->
s1 t07. Mexicali Blues
s1 t08. It Must Have Been The Roses
s1 t19. Beat It On Down The Line
s1 t10. Cumberland Blues ->
s1 t11. Looks Like Rain
s1 t12. Might as Well

Set Two:
s2 t01. Samson & Delilah
s2 t02. Ship Of Fools
s2 t03. Estimated Prophet
s2 t04. He's Gone ->
s2 t05. Drums ->
s2 t06. Space ->
s2 t07. The Other One ->
s2 t08. Stella Blue ->
s2 t09. Going Down The Road Feeling Bad ->
s2 t10. Good Lovin'
Encore:
s2 t11. Don't Ease Me In



    length     expanded size    cdr  WAVE problems  fmt   ratio  filename
     0:48.867      28147244 B   cxx   --   ---xx   flac  0.6316  gd81-08-30 s1 t01 Crowd_Tuning.flac
     8:34.413     296302124 B   cxx   --   ---xx   flac  0.6828  gd81-08-30 s1 t02 Mississippi Half-Step.flac
     9:22.573     324042284 B   cxx   --   ---xx   flac  0.6839  gd81-08-30 s1 t03 Franklin's Tower.flac
     6:59.387     241566764 B   cxx   --   ---xx   flac  0.6878  gd81-08-30 s1 t04 New Minglewood Blues.flac
     8:29.560     293506604 B   cxx   --   ---xx   flac  0.6827  gd81-08-30 s1 t05 Tennessee Jed.flac
     2:40.227      92290604 B   cxx   --   ---xx   flac  0.6872  gd81-08-30 s1 t06 Mama Tried.flac
     4:49.653     166840364 B   cxx   --   ---xx   flac  0.6860  gd81-08-30 s1 t07 Mexicali Blues.flac
     6:52.800     237772844 B   cxx   --   ---xx   flac  0.6743  gd81-08-30 s1 t08 It Must Have Been The Roses.flac
     3:13.307     111344684 B   cxx   --   ---xx   flac  0.6898  gd81-08-30 s1 t09 Beat It On Down The Line.flac
     5:29.613     189857324 B   cxx   --   ---xx   flac  0.6868  gd81-08-30 s1 t10 Cumberland Blues.flac
     8:22.413     289390124 B   cxx   --   ---xx   flac  0.6772  gd81-08-30 s1 t11 Looks Like Rain.flac
     4:28.677     154758128 B   cxx   --   ---xx   flac  0.6929  gd81-08-30 s1 t12 Might As Well.flac
     9:04.467     313612844 B   cxx   --   ---xx   flac  0.6940  gd81-08-30 s2 t01 Samson & Delilah.flac
     8:10.413     282478124 B   cxx   --   ---xx   flac  0.6736  gd81-08-30 s2 t02 Ship Of Fools.flac
    12:26.493     429980204 B   cxx   --   ---xx   flac  0.6853  gd81-08-30 s2 t03 Estimated Prophet.flac
    14:59.013     517831724 B   cxx   --   ---xx   flac  0.6735  gd81-08-30 s2 t04 He's Gone.flac
     9:42.280     335393324 B   cxx   --   ---xx   flac  0.6627  gd81-08-30 s2 t05 Drums.flac
     5:00.480     173076524 B   cxx   --   ---xx   flac  0.6628  gd81-08-30 s2 t06 Space.flac
     9:49.787     339717164 B   cxx   --   ---xx   flac  0.6833  gd81-08-30 s2 t07 The Other One.flac
    10:19.653     356920364 B   cxx   --   ---xx   flac  0.6660  gd81-08-30 s2 t08 Stella Blue.flac
     6:04.907     210186284 B   cxx   --   ---xx   flac  0.6860  gd81-08-30 s2 t09 Going Down The Road Feeling Bad.flac
     8:30.067     293798444 B   cxx   --   ---xx   flac  0.6865  gd81-08-30 s2 t10 Good Lovin'.flac
     3:15.279     112480658 B   cxx   --   ---xx   flac  0.6774  gd81-08-30 s2 t11 Don't Ease Me In.flac
   167:34.329    5791294750 B                            0.6798  (23 files)

No errors occured.



Show Checksums
ffp
gd81-08-30 s1 t01 Crowd_Tuning.flac:e4ea5ae21dc377748e6fb457880de3ec
gd81-08-30 s1 t02 Mississippi Half-Step.flac:5bdd06dd637d6d6b842737120356a8b3
gd81-08-30 s1 t03 Franklin's Tower.flac:26b0b72b319757828adc5f5830bb3c1d
gd81-08-30 s1 t04 New Minglewood Blues.flac:551d09f74e18f4e69c1c85387187bd32
gd81-08-30 s1 t05 Tennessee Jed.flac:1eff1a00c8cbc7d4e8590ea82a0c738e
gd81-08-30 s1 t06 Mama Tried.flac:2da49e24f56f464900dfd101b8451995
gd81-08-30 s1 t07 Mexicali Blues.flac:64d888a1419eb97e5798f8b743473be8
gd81-08-30 s1 t08 It Must Have Been The Roses.flac:3bdd1a2d09a734d99d0ae700e2b4e8f4
gd81-08-30 s1 t09 Beat It On Down The Line.flac:25cd55f2ef7f4f4891d5d8975472d4a9
gd81-08-30 s1 t10 Cumberland Blues.flac:57417a47759d72dbeae4b2546baabf84
gd81-08-30 s1 t11 Looks Like Rain.flac:2b81cc7df758e2199eab2ad4fe92da2c
gd81-08-30 s1 t12 Might As Well.flac:ee2f4a136785b1960c4aa48e8bf9a1a6
gd81-08-30 s2 t01 Samson & Delilah.flac:b1ce1ac1f3a28312c28c55f4f38f9849
gd81-08-30 s2 t02 Ship Of Fools.flac:3ad5ad8807c3a1cc052916b001274511
gd81-08-30 s2 t03 Estimated Prophet.flac:a29ed014c0d436750232c1b814723be9
gd81-08-30 s2 t04 He's Gone.flac:384e5259f6cdcb88792a5a5c555d3630
gd81-08-30 s2 t05 Drums.flac:6292899845b2bd3e02d6618d795a265b
gd81-08-30 s2 t06 Space.flac:5bfd3d5ea24de7a326ab088c34fd9248
gd81-08-30 s2 t07 The Other One.flac:3f4ab733eff2ac59f0a16005f3a7a9df
gd81-08-30 s2 t08 Stella Blue.flac:bec6d29f09bfc03565ea56a49dfd4027
gd81-08-30 s2 t09 Going Down The Road Feeling Bad.flac:62376a19851f64e4621aa0da259e0109
gd81-08-30 s2 t10 Good Lovin'.flac:f7fa6ce633aad7320da62700fc08dd00
gd81-08-30 s2 t11 Don't Ease Me In.flac:1d682e7b0e17b1698dc9e0cae870e386
flac-md5
19ce506f7d4a43ed4964b71e6ddec542 *gd81-08-30 s1 t01 Crowd_Tuning.flac
82e7d3759f57e75cbf8a0d832c7fbf34 *gd81-08-30 s1 t02 Mississippi Half-Step.flac
12614fd1c6e384646e93f9184123c29e *gd81-08-30 s1 t03 Franklin's Tower.flac
4d58c46773cdaf4d7bb08bd7624c731b *gd81-08-30 s1 t04 New Minglewood Blues.flac
af5b64914997afa4ee63921d47ea4650 *gd81-08-30 s1 t05 Tennessee Jed.flac
764fe2d9637615bc0fdab7a0d67874dc *gd81-08-30 s1 t06 Mama Tried.flac
907fe24861bc11087d26bda1254932d1 *gd81-08-30 s1 t07 Mexicali Blues.flac
e5791426011d28f63f95bc857d4c8b21 *gd81-08-30 s1 t08 It Must Have Been The Roses.flac
ec7503a2fcefbbc2d92a711ef130d7c1 *gd81-08-30 s1 t09 Beat It On Down The Line.flac
78a47c87e2d5825a35e5e3bd99ee82cd *gd81-08-30 s1 t10 Cumberland Blues.flac
e6db2e0c6804f5bdf50a35569709a61f *gd81-08-30 s1 t11 Looks Like Rain.flac
118066f3493b6a038959c89ce55eabc4 *gd81-08-30 s1 t12 Might As Well.flac
b6a516bbe6aad4b4ba13ca5d4027d73a *gd81-08-30 s2 t01 Samson & Delilah.flac
dda6145ae418586131c8fa91feb8c4a4 *gd81-08-30 s2 t02 Ship Of Fools.flac
48c64ddf0946ad0fb7c23f155df2e73a *gd81-08-30 s2 t03 Estimated Prophet.flac
fd300233255a126cd48b329312a39fc4 *gd81-08-30 s2 t04 He's Gone.flac
9928ef76be66ba304c27e629a231c834 *gd81-08-30 s2 t05 Drums.flac
2397301ad6d4186f0cd8efeeecfcd399 *gd81-08-30 s2 t06 Space.flac
b5ff63b6d3e520e6a8305140a18d3e6f *gd81-08-30 s2 t07 The Other One.flac
434013d39a32b120fd17624e5af2bb7e *gd81-08-30 s2 t08 Stella Blue.flac
09e2bc88904f231155e427e2454a4cb0 *gd81-08-30 s2 t09 Going Down The Road Feeling Bad.flac
c18cebb0b7205d45a4a0fd257a470e91 *gd81-08-30 s2 t10 Good Lovin'.flac
3983cedda81596e7e932e46c1073a541 *gd81-08-30 s2 t11 Don't Ease Me In.flac

Comments
Add Comment
Other Sources (comments)
FOB Senn... (0) flac16; SBD ->... (0) flac16; Pitch and... (0) flac16; Recording... (0) flac24; Recording... (0) flac16; Recording... (0) flac24; source: aud... (0) flac16; source: aud... (0) flac16; Source Info:... (0)
Date User Comment