Browse Collections Artists Sources   Search Dates

Add Show    List Management    Help


Grateful Dead 03/24/93
Dean Smith Center, Chapel Hill, NC
Comments Add Comment    Source Collectors    Add to Collection    Add to Want List    History
Source # 140000 Other Sources
Entered by Matt Vernon
Checksums ffp , flac-md5
Disc Counts 0 / 0
Media Size Compressed: 799.71 MB (838559855 bytes)
Uncompressed: 1.54 GB (1648567116 bytes)
Date Circulated
Date Added
11/21/2017
11/21/2017
Source Summary flac16; Matrix of Source 1 (shnid 109210): Recording Info: SBD -> Dat Master (48k); Transfer Info: Dat Master (Sony R500) -> Sound Devices 744T -> Samplitude Professional v10.1 -> FLAC; and Source 2 (shnid 85794): Recording info: AKG 460/CK8's > Marantz PMD-700; Transfer info: Tascam DA-30 -[S/PDIF]-> (48k) Diamond xTreme SC > Cool Edit Pro (44.1k) > CDWave > FLAC (L8) 
  Archive
Source Information - Download Text | Download Zip
Grateful Dead
Dean Smith Center - Chapel Hill, NC
March 24, 1993


Matrix


Source 1 (shnid 109210):

Recording Info:
SBD -> Dat Master (48k)

Transfer Info:
Dat Master (Sony R500) -> Sound Devices 744T -> Samplitude Professional v10.1 -> FLAC
(3 Discs Audio / 2 Discs FLAC)

All Transfers and Mastering By Charlie Miller
[email protected]
August 5, 2010


Source 2 (shnid 85794):

Recording info:
AKG 460/CK8's > Marantz PMD-700

Transfer info:
Tascam DA-30 -[S/PDIF]-> (48k) Diamond xTreme SC > Cool Edit Pro (44.1k) > CDWave > FLAC (L8)
By Scott Swayne (AltheasBoy) in 06/2007



Set 1:
100 tuning
101 Jack Straw
102 Stagger Lee
103 Wang Dang Doodle
104 It Must Have Been the Roses
105 Stuck Inside of Mobile with the Memphis Blues Again
106 Tennessee Jed
107 Let it Grow

Set 2:
200 tuning
201 Here Comes Sunshine
202 Playin' in the Band
203 Box of Rain
204 Crazy Fingers
205 Drums
206 Space
207 Spanish jam
208 Goin' Down the Road Feelin' Bad
209 Throwing Stones
210 Not Fade Away

Encore:
900 Encore Break
901 Lucy in the Sky with Diamonds



    length     expanded size    cdr  WAVE problems  fmt   ratio  filename
     2:32.27       26876348 B   ---   --   ---xx   flac  0.3472  100 tuning.flac
     5:53.20       62316284 B   ---   --   ---xx   flac  0.5529  101 Jack Straw.flac
     5:43.55       60634604 B   ---   --   ---xx   flac  0.5501  102 Stagger Lee.flac
     7:50.22       82959788 B   ---   --   ---xx   flac  0.4979  103 Wang Dang Doodle.flac
     6:08.73       65086940 B   ---   --   ---xx   flac  0.4936  104 It Must Have Been the Roses.flac
     9:26.61       99985916 B   ---   --   ---xx   flac  0.5025  105 Stuck Inside of Mobile with the Memphis Blues Again.flac
     9:02.52       95731148 B   ---   --   ---xx   flac  0.5257  106 Tennessee Jed.flac
    11:26.60      121151564 B   ---   --   ---xx   flac  0.5208  107 Let it Grow.flac
     1:53.12       19961468 B   ---   --   ---xx   flac  0.3291  200 tuning.flac
     6:54.24       73086092 B   ---   --   ---xx   flac  0.5669  201 Here Comes Sunshine.flac
     6:43.49       71204492 B   ---   --   ---xx   flac  0.5170  202 Playin'.flac
     5:40.62       60121868 B   ---   --   ---xx   flac  0.5594  203 Box of Rain.flac
    12:53.28      136423100 B   ---   --   ---xx   flac  0.5107  204 Crazy Fingers.flac
    14:21.20      151927484 B   ---   --   ---xx   flac  0.4480  205 Drums.flac
    10:47.10      114154364 B   ---   --   ---xx   flac  0.4214  206 Space.flac
     4:18.57       45645308 B   ---   --   ---xx   flac  0.4713  207 Spanish Jam.flac
     8:14.16       87179276 B   ---   --   ---xx   flac  0.5642  208 Goin' Down the Road Feelin' Bad.flac
     9:19.68       98767580 B   ---   --   ---xx   flac  0.5695  209 Throwing Stones.flac
     8:55.51       94493996 B   ---   --   ---xx   flac  0.5311  210 Not Fade Away.flac
     3:02.19       32149532 B   ---   --   ---xx   flac  0.4757  900 crowd.flac
     4:36.10       48709964 B   ---   --   ---xx   flac  0.5666  901 Lucy in the Sky with Diamonds.flac
   155:45.46     1648567116 B                            0.5087  (21 files)


Matrix by [email protected]



Show Checksums
ffp
100 tuning.flac:2848fe1c881d13df453b470a9302a728
101 Jack Straw.flac:7c6fd7ff0d857023ec674b8354e31a08
102 Stagger Lee.flac:a62e9d3722faa97057571d29a344ebb0
103 Wang Dang Doodle.flac:ae04cff674dc8d76fa4d442d6719487e
104 It Must Have Been the Roses.flac:5932d8403293545be029abd157141742
105 Stuck Inside of Mobile with the Memphis Blues Again.flac:b5e1f70b838e4e279e5fa4d3e5605d74
106 Tennessee Jed.flac:d83e50e45ee14f7cc0cb95ca7f182f00
107 Let it Grow.flac:e559bfa25ab00497640198fcf4074271
200 tuning.flac:cfc2114e0ca709d6f48ae0909590770d
201 Here Comes Sunshine.flac:4b8f19e8f093719a61fc10e94560d312
202 Playin'.flac:bc3eb182a66c15ab8fd735ad95cd1724
203 Box of Rain.flac:b6b5a629e59f69daead37bff16d98fc1
204 Crazy Fingers.flac:72494047f3d3b289e9c2a5c9ab54ce97
205 Drums.flac:bbbb3d7fbc60f27eb28d25f927b2d3f7
206 Space.flac:d890626581e7f881a9817756d1c946d9
207 Spanish Jam.flac:7bd57eb4c880d9f5d4057dfb1571cb56
208 Goin' Down the Road Feelin' Bad.flac:2bb354581005b1b91f90d1215aa934d0
209 Throwing Stones.flac:02acd48e258d1fbbc7999800803965c8
210 Not Fade Away.flac:9aeba1792839deef0028d27f599a7903
900 crowd.flac:81c40219c2468f6351fbd7e6020a7259
901 Lucy in the Sky with Diamonds.flac:2f615c2d09d87b2baaa0ed486db5c9c3
flac-md5
f6028db547335ffcc86231fdbc98b869 *100 tuning.flac
55c1ca4848bd767f041de585ec86d658 *101 Jack Straw.flac
0c357431be86aabf2b35d2ed375a268c *102 Stagger Lee.flac
5299f5124fe1c75af3e5f7a47c170008 *103 Wang Dang Doodle.flac
bee4af7f43ac081fba0c47dfac396e9c *104 It Must Have Been the Roses.flac
22231b9737e50f3f5dde6722a9dfb16d *105 Stuck Inside of Mobile with the Memphis Blues Again.flac
fdc3d12057818d24e31c797ed90290fb *106 Tennessee Jed.flac
7042934eb63df8112d4bfa13fe5609e7 *107 Let it Grow.flac
6c7d7a9c65d642b125fb234ec99bdf24 *200 tuning.flac
52d1a5afc2d04dd8568c1c1b30d8d768 *201 Here Comes Sunshine.flac
d0072f5365a990209fc0cd665e8f0a31 *202 Playin'.flac
044f1542ba20d5258815a65b81e5e584 *203 Box of Rain.flac
d21569dcf5f4f33831b474bd5227d416 *204 Crazy Fingers.flac
19dcc21dbcf3642ea44f02cf789701cd *205 Drums.flac
a549bc64ffaba939a56d679f0fed372b *206 Space.flac
b3e8967e07612de048d26628b7c9cf24 *207 Spanish Jam.flac
499cfb9b0c7f6d23598925f73144c29f *208 Goin' Down the Road Feelin' Bad.flac
cdfc0d9e3de8e03652d059e8b646da46 *209 Throwing Stones.flac
584f8ede77c6fa9e1f4b3b2992be92b2 *210 Not Fade Away.flac
30b414b9456185213f1f0201249b5b64 *900 crowd.flac
87a7877af594c8249c4b399028affdbe *901 Lucy in the Sky with Diamonds.flac

Comments
Add Comment
Other Sources (comments)
SBD > DAT > CDR > EAC >... (0) SBD > D10 proII transfered... (1) Source: Master SBD>DAT via... (2) Set 2 Only: AMS ST250 FOB... (1) flac16; AKG... (0) flac16/48; AKG... (0) Updated lineage: SBD > ? >... (0) flac16; Recording... (0) flac16/48kHz;... (0)
Date User Comment