Browse Collections Artists Sources   Search Dates

Add Show    List Management    Help


Grateful Dead 08/31/81
Aladdin Theater, Las Vegas, NV
Comments Add Comment    Source Collectors    Add to Collection    Add to Want List    History
Source # 140006 Other Sources
Entered by Matt Vernon
Checksums ffp , flac-md5
Disc Counts 0 / 0
Media Size
Date Circulated
Date Added
11/22/2017
11/22/2017
Source Summary flac16; Source Info: Frank Streeter's Master FOB Audience Cassette; Sennheiser 421 mics > Sony TC-D5M (TDK MA90); Transfer Info: Cassette Master (Nakamichi CR-7A) > Tascam DA-3000 (DSF 1-bit/5.8 MHz)> KORG AudioGate 4 > Adobe Audition 3.0> TLH flac2496 
  Archive
Source Information - Download Text | Download Zip
Grateful Dead
Alladin Hotel Theatre
Las Vegas, NV
Monday August 31, 1981

This is a 16/44 fileset. 24 bit to 16 bit via dBpoweramp

Source Info:
Frank Streeter's Master FOB Audience Cassette; Sennheiser 421 mics > Sony TC-D5M (TDK MA90)

Transfer Info:
Cassette Master (Nakamichi CR-7A) > Tascam DA-3000 (DSF 1-bit/5.8 MHz)> KORG AudioGate 4 > Adobe Audition 3.0> TLH flac2496

Notes:
- Thanks to Frank Streeter for the master recording
- Thanks to Charlie Miller for the transfer
- Thanks to the folks responsible for the shnid91893 unknown audience source which supplies "Lost Sailor > Saint Of Circumstance" and "US Blues" in their entireties, as well as a 1:52 patch in the transition between "Drums" and "Space"
- Between song transitions smoothed
- First time playing Las Vegas
- Ladies and gentlemen, boys and girls the circus is in town.....

Transfer by Charlie Miller
Mastered by Scott Clugston
11/18/17

Set One:
s1 t01. Crowd / Tuning
s1 t02. Feel Like A Stranger
s1 t03. Jack-A-Roe ->
s1 t04. El Paso
s1 t05. Candyman ->
s1 t06. Little Red Rooster
s1 t07. Loser
s1 t08. Cassidy
s1 t19. Althea
s1 t10. Let It Grow ->
s1 t11. Deal

Set Two:
s2 t01. Lost Sailor ->
s2 t02. Saint Of Circumstance
s2 t03. Scarlet Begonias ->
s2 t04. Fire On The Mountain
s2 t05. Playing In The Band ->
s2 t06. Drums ->
s2 t07. Space ->
s2 t08. Never Trust A Woman ->
s2 t09. Morning Dew ->
s2 t10. Playing Reprise ->
s2 t11. Around & Around ->
s2 t12. Johnny B. Goode
Encore:
s2 t13. US Blues



     length     expanded size    cdr  WAVE problems  fmt   ratio  filename
     0:37.37        6613868 B   ---   --   ---xx   flac  0.5370  gd81-08-31 s1 t01 Feel Like A Stranger.flac
     7:40.59       81282812 B   ---   --   ---xx   flac  0.5869  gd81-08-31 s1 t02 Jack-A-Roe.flac
     4:11.25       44335244 B   ---   --   ---xx   flac  0.5867  gd81-08-31 s1 t03 El Paso.flac
     5:03.02       53453948 B   ---   --   ---xx   flac  0.5937  gd81-08-31 s1 t04 Candyman.flac
     6:27.12       68295068 B   ---   --   ---xx   flac  0.5896  gd81-08-31 s1 t05 Little Red Rooster.flac
     8:43.30       92327804 B   ---   --   ---xx   flac  0.5991  gd81-08-31 s1 t06 Loser.flac
     7:16.24       76966892 B   ---   --   ---xx   flac  0.5843  gd81-08-31 s1 t07 Loser.flac
     5:26.47       57616988 B   ---   --   ---xx   flac  0.5969  gd81-08-31 s1 t08 Cassidy.flac
     9:49.31      103972556 B   ---   --   ---xx   flac  0.5785  gd81-08-31 s1 t09 Althea.flac
    11:32.00      122068844 B   ---   --   ---xx   flac  0.6071  gd81-08-31 s1 t10 Let It Grow.flac
     8:11.51       86732396 B   ---   --   ---xx   flac  0.6071  gd81-08-31 s1 t11 Deal.flac
     7:12.10       76228364 B   ---   --   ---xx   flac  0.5453  gd81-08-31 s2 t01 Lost Sailor.flac
     7:19.05       77451404 B   ---   --   ---xx   flac  0.5929  gd81-08-31 s2 t02 Saint Of Circumstance.flac
    13:10.41      139452476 B   ---   --   ---xx   flac  0.6069  gd81-08-31 s2 t03 Scarlet Begonias.flac
    10:39.35      112801964 B   ---   --   ---xx   flac  0.6046  gd81-08-31 s2 t04 Fire On The Mountain.flac
    11:16.45      119352284 B   ---   --   ---xx   flac  0.6062  gd81-08-31 s2 t05 Playing In The Band.flac
     7:48.44       82658732 B   ---   --   ---xx   flac  0.5544  gd81-08-31 s2 t06 Drums.flac
     8:18.36       87931916 B   ---   --   ---xx   flac  0.5363  gd81-08-31 s2 t07 Space.flac
     7:55.40       83884124 B   ---   --   ---xx   flac  0.5726  gd81-08-31 s2 t08 Never Trust A Woman.flac
    11:51.17      125460428 B   ---   --   ---xx   flac  0.5716  gd81-08-31 s2 t09 Morning Dew.flac
     3:12.58       34005260 B   ---   --   ---xx   flac  0.5831  gd81-08-31 s2 t10 Playing reprise.flac
     3:58.03       41990300 B   ---   --   ---xx   flac  0.6005  gd81-08-31 s2 t11 Around & Around.flac
     4:17.31       45407756 B   ---   --   ---xx   flac  0.6180  gd81-08-31 s2 t12 Johnny B. Goode.flac
     5:25.38       57419420 B   ---   --   ---xx   flac  0.5591  gd81-08-31 s2 t13 US Blues.flac
   177:24.46     1877710848 B                            0.5866  (24 files)

No errors occured.


Show Checksums
ffp
gd81-08-31 s1 t01 Feel Like A Stranger.flac:1f93e0f32cb06478d5b8cb65af515e79
gd81-08-31 s1 t02 Jack-A-Roe.flac:95bc0471cd5c2fbf24028725c4cbf51d
gd81-08-31 s1 t03 El Paso.flac:c66a538a6b958d2be46ebc37e6ce60a9
gd81-08-31 s1 t04 Candyman.flac:ae3d86e7aa7e743065aad108956d13d8
gd81-08-31 s1 t05 Little Red Rooster.flac:b96066838f186f70139c0202be83afc3
gd81-08-31 s1 t06 Loser.flac:b39f10ecf83be0c895884a5156324b9d
gd81-08-31 s1 t07 Loser.flac:ce44f587a6c531499267df8395a530f9
gd81-08-31 s1 t08 Cassidy.flac:731f6a0ef8a9c10b97f290d763d890fc
gd81-08-31 s1 t09 Althea.flac:b27f6be0fb6417b4cf296cb28117c836
gd81-08-31 s1 t10 Let It Grow.flac:487cd177a99e3bbd14b22b77ce1d1c0e
gd81-08-31 s1 t11 Deal.flac:20ced665d51127bccdf43f26e4f5cad1
gd81-08-31 s2 t01 Lost Sailor.flac:91915f2b5c7dada5387aa2663e4fb65f
gd81-08-31 s2 t02 Saint Of Circumstance.flac:5cc14e4f4862ffa879004a02e3808c26
gd81-08-31 s2 t03 Scarlet Begonias.flac:78ba43dae12071337ecb4af71eb038c2
gd81-08-31 s2 t04 Fire On The Mountain.flac:b9a9db98c0600d01422697296b2cf6ac
gd81-08-31 s2 t05 Playing In The Band.flac:ca852f97a47ca7ec795746307adfbaf3
gd81-08-31 s2 t06 Drums.flac:dac42bcdf4560bdc1e27015068b228e1
gd81-08-31 s2 t07 Space.flac:4568b346243d2c7f64acdf4359ea3180
gd81-08-31 s2 t08 Never Trust A Woman.flac:d2199e1d378a09194018d17badcf8314
gd81-08-31 s2 t09 Morning Dew.flac:6f651dac32e18d571b5b320608f7b105
gd81-08-31 s2 t10 Playing reprise.flac:f8db64afc99c1d64a7efabe1b85a6193
gd81-08-31 s2 t11 Around & Around.flac:701884c1badb73888c4c94e18da518ec
gd81-08-31 s2 t12 Johnny B. Goode.flac:82c6b06b99bc6a7ae1ed01ef2432ddb2
gd81-08-31 s2 t13 US Blues.flac:408f276ec275d89ac578ecb1f159ba6b
flac-md5
33bc3b0d99281892f8ce571958da28c7 *gd81-08-31 s1 t01 Feel Like A Stranger.flac
184b423ca0f9aeabb943ee9ffb6e8c81 *gd81-08-31 s1 t02 Jack-A-Roe.flac
8f320d35d54a2e6a0dd6de21e1511365 *gd81-08-31 s1 t03 El Paso.flac
8d32bc0df617445f02cf443dfcc3e15d *gd81-08-31 s1 t04 Candyman.flac
aec50cfe2358ed5d43a61ceadc500895 *gd81-08-31 s1 t05 Little Red Rooster.flac
fcf06eb026eef40faaa6db91e682ae15 *gd81-08-31 s1 t06 Loser.flac
47bfc87aeab5b09d9783a3c590f6834d *gd81-08-31 s1 t07 Loser.flac
97ac587b8b1f164101cb3552419e1b78 *gd81-08-31 s1 t08 Cassidy.flac
850dc57b20b281a0c6b0fa72a771a8c9 *gd81-08-31 s1 t09 Althea.flac
f7d10ee2df30782f0bf89e6ceeb81609 *gd81-08-31 s1 t10 Let It Grow.flac
645e3ca76a0c059b0d40b40700f58345 *gd81-08-31 s1 t11 Deal.flac
9c009dc1480dcf039a0d52c848092625 *gd81-08-31 s2 t01 Lost Sailor.flac
79e898f22208c0fbc0bc1194c7626ba0 *gd81-08-31 s2 t02 Saint Of Circumstance.flac
6cc4dc2f7e5462fc5644aa42e97ae90f *gd81-08-31 s2 t03 Scarlet Begonias.flac
3dfd2bff6e3ce8f3bac74b38887c4d54 *gd81-08-31 s2 t04 Fire On The Mountain.flac
ba3e66df4e6078a3964cb55c77e237d3 *gd81-08-31 s2 t05 Playing In The Band.flac
55150e1cedaf9df67eea5523a2315d65 *gd81-08-31 s2 t06 Drums.flac
53ff46efb76bfa42697b4c80bc315f93 *gd81-08-31 s2 t07 Space.flac
0774d0838f94b25dfb4d9134472d0507 *gd81-08-31 s2 t08 Never Trust A Woman.flac
a7d5d11c33800a83ca1ccffe8686f583 *gd81-08-31 s2 t09 Morning Dew.flac
447808229f4299ddfc56a6d352a37120 *gd81-08-31 s2 t10 Playing reprise.flac
2a10c2be88f994cf86653bf91ede517e *gd81-08-31 s2 t11 Around & Around.flac
b942ce5c41abfaa2792e3c7678dc4d2c *gd81-08-31 s2 t12 Johnny B. Goode.flac
82f8c3440fc1ff92dd8f6a034fadee29 *gd81-08-31 s2 t13 US Blues.flac

Comments
Add Comment
Other Sources (comments)
AUD>MC>DAT>CDR; Certified... (1) flac16; Recording... (1) flac16; Audience... (0) flac16; Recording... (0) flac16; 2 source... (0) flac24; Source Info:... (0)
Date User Comment