Browse Collections Artists Sources   Search Dates

Add Show    List Management    Help


Grateful Dead 08/31/81
Aladdin Theater, Las Vegas, NV
Comments Add Comment    Source Collectors    Add to Collection    Add to Want List    History
Source # 140007 Other Sources
Entered by Matt Vernon
Checksums ffp , flac-md5
Disc Counts 0 / 0
Media Size
Date Circulated
Date Added
11/22/2017
11/22/2017
Source Summary flac24; Source Info: Frank Streeter's Master FOB Audience Cassette; Sennheiser 421 mics > Sony TC-D5M (TDK MA90); Transfer Info: Cassette Master (Nakamichi CR-7A) > Tascam DA-3000 (DSF 1-bit/5.8 MHz)> KORG AudioGate 4 > Adobe Audition 3.0> TLH flac2496 
  Archive
Source Information - Download Text | Download Zip
Grateful Dead
Alladin Hotel Theatre
Las Vegas, NV
Monday August 31, 1981

Source Info:
Frank Streeter's Master FOB Audience Cassette; Sennheiser 421 mics > Sony TC-D5M (TDK MA90)

Transfer Info:
Cassette Master (Nakamichi CR-7A) > Tascam DA-3000 (DSF 1-bit/5.8 MHz)> KORG AudioGate 4 > Adobe Audition 3.0> TLH flac2496

Notes:
- Thanks to Frank Streeter for the master recording
- Thanks to Charlie Miller for the transfer
- Thanks to the folks responsible for the shnid91893 unknown audience source which supplies "Lost Sailor > Saint Of Circumstance" and "US Blues" in their entireties, as well as a 1:52 patch in the transition between "Drums" and "Space"
- Between song transitions smoothed
- First time playing Las Vegas
- Ladies and gentlemen, boys and girls the circus is in town.....

Transfer by Charlie Miller
Mastered by Scott Clugston
11/18/17

Set One:
s1 t01. Crowd / Tuning
s1 t02. Feel Like A Stranger
s1 t03. Jack-A-Roe ->
s1 t04. El Paso
s1 t05. Candyman ->
s1 t06. Little Red Rooster
s1 t07. Loser
s1 t08. Cassidy
s1 t19. Althea
s1 t10. Let It Grow ->
s1 t11. Deal

Set Two:
s2 t01. Lost Sailor ->
s2 t02. Saint Of Circumstance
s2 t03. Scarlet Begonias ->
s2 t04. Fire On The Mountain
s2 t05. Playing In The Band ->
s2 t06. Drums ->
s2 t07. Space ->
s2 t08. Never Trust A Woman ->
s2 t09. Morning Dew ->
s2 t10. Playing Reprise ->
s2 t11. Around & Around ->
s2 t12. Johnny B. Goode
Encore:
s2 t13. US Blues



    length     expanded size    cdr  WAVE problems  fmt   ratio  filename
     0:37.493      21596204 B   cxx   --   ---xx   flac  0.6415  gd81-08-31 s1 t01 Feel Like A Stranger.flac
     7:40.787     265413164 B   cxx   --   ---xx   flac  0.6626  gd81-08-31 s1 t02 Jack-A-Roe.flac
     4:11.333     144768044 B   cxx   --   ---xx   flac  0.6621  gd81-08-31 s1 t03 El Paso.flac
     5:03.027     174543404 B   cxx   --   ---xx   flac  0.6655  gd81-08-31 s1 t04 Candyman.flac
     6:27.160     223004204 B   cxx   --   ---xx   flac  0.6637  gd81-08-31 s1 t05 Little Red Rooster.flac
     8:43.400     301478444 B   cxx   --   ---xx   flac  0.6685  gd81-08-31 s1 t06 Loser.flac
     7:16.320     251320364 B   cxx   --   ---xx   flac  0.6612  gd81-08-31 s1 t07 Loser.flac
     5:26.627     188137004 B   cxx   --   ---xx   flac  0.6658  gd81-08-31 s1 t08 Cassidy.flac
     9:49.413     339502124 B   cxx   --   ---xx   flac  0.6593  gd81-08-31 s1 t09 Althea.flac
    11:32.000     398592044 B   cxx   --   ---xx   flac  0.6703  gd81-08-31 s1 t10 Let It Grow.flac
     8:11.681     283208444 B   cxx   --   ---xx   flac  0.6713  gd81-08-31 s1 t11 Deal.flac
     7:12.133     248908844 B   cxx   --   ---xx   flac  0.5684  gd81-08-31 s2 t01 Lost Sailor.flac
     7:19.067     252902444 B   cxx   --   ---xx   flac  0.5932  gd81-08-31 s2 t02 Saint Of Circumstance.flac
    13:10.547     455354924 B   cxx   --   ---xx   flac  0.6735  gd81-08-31 s2 t03 Scarlet Begonias.flac
    10:39.467     368332844 B   cxx   --   ---xx   flac  0.6730  gd81-08-31 s2 t04 Fire On The Mountain.flac
    11:16.600     389721644 B   cxx   --   ---xx   flac  0.6729  gd81-08-31 s2 t05 Playing In The Band.flac
     7:48.587     269905964 B   cxx   --   ---xx   flac  0.6361  gd81-08-31 s2 t06 Drums.flac
     8:18.480     287124524 B   cxx   --   ---xx   flac  0.6387  gd81-08-31 s2 t07 Space.flac
     7:55.533     273907244 B   cxx   --   ---xx   flac  0.6578  gd81-08-31 s2 t08 Never Trust A Woman.flac
    11:51.227     409666604 B   cxx   --   ---xx   flac  0.6571  gd81-08-31 s2 t09 Morning Dew.flac
     3:12.773     111037484 B   cxx   --   ---xx   flac  0.6614  gd81-08-31 s2 t10 Playing reprise.flac
     3:58.040     137111084 B   cxx   --   ---xx   flac  0.6675  gd81-08-31 s2 t11 Around & Around.flac
     4:17.413     148270124 B   cxx   --   ---xx   flac  0.6752  gd81-08-31 s2 t12 Johnny B. Goode.flac
     5:25.503     187489982 B   cxx   --   ---xx   flac  0.5767  gd81-08-31 s2 t13 US Blues.flac
   177:24.611    6131297154 B                            0.6540  (24 files)

No errors occured.


Show Checksums
ffp
gd81-08-31 s1 t01 Feel Like A Stranger.flac:894dc8112b285888d113652eb4bc1af5
gd81-08-31 s1 t02 Jack-A-Roe.flac:811bc241162c401d5ae2e260a91f9b30
gd81-08-31 s1 t03 El Paso.flac:6d3d060a46888535bb1b8890cb9ce146
gd81-08-31 s1 t04 Candyman.flac:38bd869280502c5be49b5c1e42d23911
gd81-08-31 s1 t05 Little Red Rooster.flac:244539856e0d7537b22313525d48c368
gd81-08-31 s1 t06 Loser.flac:0beb1cd658c2f42c87895b6b028ebf7c
gd81-08-31 s1 t07 Loser.flac:881fa80b6e6442eb44b4a19b3127b917
gd81-08-31 s1 t08 Cassidy.flac:2851b68cc6df17d2719d8a2db16dfbcf
gd81-08-31 s1 t09 Althea.flac:0833fc5be0282a958f7d53cf29cd369f
gd81-08-31 s1 t10 Let It Grow.flac:e1e1bf3aa3cb770df66772345f188ee4
gd81-08-31 s1 t11 Deal.flac:501035328c1a87d94595cd5addb6a067
gd81-08-31 s2 t01 Lost Sailor.flac:cd0a70d093558d28a4ee62241850802c
gd81-08-31 s2 t02 Saint Of Circumstance.flac:b199e4e78b3a33e8952b3001e531bf64
gd81-08-31 s2 t03 Scarlet Begonias.flac:64a01c1ea4098569042baf452dc0afa7
gd81-08-31 s2 t04 Fire On The Mountain.flac:521d4394f24b3c1c1415ff454f33db37
gd81-08-31 s2 t05 Playing In The Band.flac:225aff0e11f4e226c6ea2f9aeb397d2a
gd81-08-31 s2 t06 Drums.flac:10d600503b0f4b032560fc2f0010c1f2
gd81-08-31 s2 t07 Space.flac:0f0ad062c8815f295430d3284533c21e
gd81-08-31 s2 t08 Never Trust A Woman.flac:6f4f2af9c7999f2452fe08f1352aa7f8
gd81-08-31 s2 t09 Morning Dew.flac:a92aec7b4ea862b2c34032b57c2c2fa8
gd81-08-31 s2 t10 Playing reprise.flac:7543a4e4f0299725f51e1c4c4bc2adca
gd81-08-31 s2 t11 Around & Around.flac:a4f732edd9db7ddf2f214f79748bd667
gd81-08-31 s2 t12 Johnny B. Goode.flac:e3bf90778dea1258d8c2bc545c162cd9
gd81-08-31 s2 t13 US Blues.flac:355ab318f974bcabc32ba248ccc276a6
flac-md5
7fbd2f31a3664f723c9a2fbb32f09801 *gd81-08-31 s1 t01 Feel Like A Stranger.flac
783dc6e2deb60775c39ddefa851d5649 *gd81-08-31 s1 t02 Jack-A-Roe.flac
bddbdeccfeae3b9f44f562633f57e241 *gd81-08-31 s1 t03 El Paso.flac
fe340229ca0ea3b0e40a51f1cbe120c7 *gd81-08-31 s1 t04 Candyman.flac
3d1013e2bef099a98cc6353f2c67025e *gd81-08-31 s1 t05 Little Red Rooster.flac
51180b3b9cc144bccc1b4f2eff952924 *gd81-08-31 s1 t06 Loser.flac
5d89ae592866f829e98408a712249dff *gd81-08-31 s1 t07 Loser.flac
8bbfba36214b0a2fc0a9492715e08e42 *gd81-08-31 s1 t08 Cassidy.flac
bb6d74bd175e96f88f95dc08dca121dc *gd81-08-31 s1 t09 Althea.flac
89a0e042603209d00d9b9f4843729dec *gd81-08-31 s1 t10 Let It Grow.flac
dcf41f85850959b113acc7258fde57ea *gd81-08-31 s1 t11 Deal.flac
d6b73ea187bce3b75ac653fc13600be6 *gd81-08-31 s2 t01 Lost Sailor.flac
b4454048ae9fe0f233be2a75a8207bc2 *gd81-08-31 s2 t02 Saint Of Circumstance.flac
9ab477b8bb10983446107af1ff620701 *gd81-08-31 s2 t03 Scarlet Begonias.flac
9294cf355598bf2bb6bbd1e54b5b2523 *gd81-08-31 s2 t04 Fire On The Mountain.flac
7610b7f863ab87fed47f83171c98e4c1 *gd81-08-31 s2 t05 Playing In The Band.flac
44d7b2b1df9f0b387e611720a47157bb *gd81-08-31 s2 t06 Drums.flac
245c1ea338042b97140465fc866d86b9 *gd81-08-31 s2 t07 Space.flac
174ba721d270dbe64eb4a7105a63fa61 *gd81-08-31 s2 t08 Never Trust A Woman.flac
03e80f8227a825bc0d26d47ab49f0b8e *gd81-08-31 s2 t09 Morning Dew.flac
2b7abc7c8f7e1321f10257a35c623ad7 *gd81-08-31 s2 t10 Playing reprise.flac
633dd509c78d279986a140ed3ec8af1d *gd81-08-31 s2 t11 Around & Around.flac
e8c339561c679f53d848753b406afe64 *gd81-08-31 s2 t12 Johnny B. Goode.flac
3c56369f03bbe624dfee7385347991ef *gd81-08-31 s2 t13 US Blues.flac

Comments
Add Comment
Other Sources (comments)
AUD>MC>DAT>CDR; Certified... (1) flac16; Recording... (1) flac16; Audience... (0) flac16; Recording... (0) flac16; 2 source... (0) flac16; Source Info:... (0)
Date User Comment