Browse Collections Artists Sources   Search Dates

Add Show    List Management    Help


Grateful Dead 03/13/81
Utica Memorial Auditorium, Utica, NY
Comments Add Comment    Source Collectors    Add to Collection    Add to Want List    History
Source # 140010 Other Sources
Entered by Matt Vernon
Checksums flac-md5 , ffp
Disc Counts 0 / 0
Media Size
Uncompressed: 5.82 GB (6244931616 bytes)
Date Circulated
Date Added
11/23/2017
11/23/2017
Source Summary flac24; Source: AKG D330BT's >Sony TC-D5M > Cassette Master (TDK MA90) - Taped by Frank Streeter; Transfer : Cassette Master > Nakamichi CR-7A > Tascam DA-3000 (DSF 1-bit/5.8 MHz) > KORG AudioGate 4 > Adobe Audition 3.0 > TLH > flac 2496 - Transferred by Charlie Miller; Lineage: Wav > Adobe Audition 3 > iZotope RX6 Advanced > iZotope Ozone 5 Advanced > CD Wave > TLH > Flac24; edited and mastered SIRMick November 2017 
  Archive
Source Information - Download Text | Download Zip
Grateful Dead
Utica Memorial Auditorium
Utica, NY
03/13/1981

Source: AKG D330BT's >Sony TC-D5M > Cassette Master  (TDK MA90) - Taped by Frank Streeter
Transfer : Cassette Master > Nakamichi CR-7A > Tascam DA-3000 (DSF 1-bit/5.8 MHz) > KORG AudioGate 4 > Adobe Audition 3.0 > TLH >  flac 2496 - Transferred by Charlie Miller
Lineage: Wav > Adobe Audition 3 > iZotope RX6 Advanced > iZotope Ozone 5 Advanced > CD Wave > TLH > Flac24



Set I

01   tuning
02   Shakedown Street
03   New Minglewood Blues
04   They Love Each Other
05   El Paso
06   Jack-A-Roe
07   Little Red Rooster
08   High Time
09   Cassidy >
10   Althea
11   The Music Never Stopped


Set II

01   tuning
02   Cold Rain And Snow
03   Samson And Delilah
04   It Must Have Been The Roses
05   Estimated Prophet >
06   Eyes Of The World >
07   Drums >
08   Space >
09   Lost Sailor>
10   Saint Of Circumstance >
11   Wharf Rat >
12   Sugar Magnolia

encore

13   Don't Ease Me In



Notes:

- tape flips after "Jack-A-Roe" and during "Space" patched with shnid 132621 - Thank you Jim Wise and David Minches.
- tapes pauses smoothed with crossfades.
- All tracks have been pitch corrected.



Thanks to Frank Streeter and Charlie Miller.


edited and mastered
SIRMick
November 2017


shntool output:

    length     expanded size    cdr  WAVE problems  fmt   ratio  filename
     1:40.000      57600044 B   cxx   --   ---xx   flac  0.6121  gd1981-03-13s1t01.flac
    13:38.200     471283244 B   cxx   --   ---xx   flac  0.6328  gd1981-03-13s1t02.flac
     8:02.933     278169644 B   cxx   --   ---xx   flac  0.6261  gd1981-03-13s1t03.flac
     7:18.200     252403244 B   cxx   --   ---xx   flac  0.6261  gd1981-03-13s1t04.flac
     4:44.147     163668524 B   cxx   --   ---xx   flac  0.6314  gd1981-03-13s1t05.flac
     5:09.187     178091564 B   cxx   --   ---xx   flac  0.6356  gd1981-03-13s1t06.flac
     9:24.333     325056044 B   cxx   --   ---xx   flac  0.6206  gd1981-03-13s1t07.flac
     9:55.933     343257644 B   cxx   --   ---xx   flac  0.6001  gd1981-03-13s1t08.flac
     5:56.627     205417004 B   cxx   --   ---xx   flac  0.6327  gd1981-03-13s1t09.flac
     8:51.320     306040364 B   cxx   --   ---xx   flac  0.6368  gd1981-03-13s1t10.flac
     9:13.280     318689324 B   cxx   --   ---xx   flac  0.6348  gd1981-03-13s1t11.flac
     1:13.387      42270764 B   cxx   --   ---xx   flac  0.5938  gd1981-03-13s2t01.flac
     5:48.907     200970284 B   cxx   --   ---xx   flac  0.6355  gd1981-03-13s2t02.flac
     8:38.600     298713644 B   cxx   --   ---xx   flac  0.6295  gd1981-03-13s2t03.flac
     8:11.840     283299884 B   cxx   --   ---xx   flac  0.6117  gd1981-03-13s2t04.flac
    13:48.227     477058604 B   cxx   --   ---xx   flac  0.6270  gd1981-03-13s2t05.flac
    12:11.640     421424684 B   cxx   --   ---xx   flac  0.6278  gd1981-03-13s2t06.flac
     7:27.480     257748524 B   cxx   --   ---xx   flac  0.6071  gd1981-03-13s2t07.flac
     2:38.893      91522604 B   cxx   --   ---xx   flac  0.5819  gd1981-03-13s2t08.flac
     6:33.053     226398764 B   cxx   --   ---xx   flac  0.6138  gd1981-03-13s2t09.flac
     6:49.960     236137004 B   cxx   --   ---xx   flac  0.6226  gd1981-03-13s2t10.flac
    10:14.440     353917484 B   cxx   --   ---xx   flac  0.6023  gd1981-03-13s2t11.flac
     9:48.560     339010604 B   cxx   --   ---xx   flac  0.6290  gd1981-03-13s2t12.flac
     3:22.747     116782124 B   cxx   --   ---xx   flac  0.6325  gd1981-03-13s2t13.flac
   180:41.893    6244931616 B                            0.6230  (24 files)


Show Checksums
flac-md5
9c16dae4ab3317373f572b6ef0dd2ae7 *gd1981-03-13s1t01.flac
b765aced8ab7d053a8e36d49a25e4e98 *gd1981-03-13s1t02.flac
678ddea583207ac763275deedfa0617c *gd1981-03-13s1t03.flac
12c0960532392e7cbe2aff82e55d923b *gd1981-03-13s1t04.flac
840225b176070fb35be89189a7ee7882 *gd1981-03-13s1t05.flac
5e3858f0d20f714d90aa9aa475c8ab4d *gd1981-03-13s1t06.flac
511f4894adcbb9402e0b142cac0a1015 *gd1981-03-13s1t07.flac
38ee9ab4caa7c4664fa196161d8620d3 *gd1981-03-13s1t08.flac
467b727d7d4ac33f8e475ba49bfe4867 *gd1981-03-13s1t09.flac
f4fd4f660b1801eb6a1fb1730eda0cff *gd1981-03-13s1t10.flac
6af6d81fc9586a84f5a54e9492b8c643 *gd1981-03-13s1t11.flac
ef5e64fb248f5f057e3641bc01a381f1 *gd1981-03-13s2t01.flac
270871d6e05827841712a898de33d61e *gd1981-03-13s2t02.flac
34f217aa5a91160705224c5474a69733 *gd1981-03-13s2t03.flac
c8bad67de03358ea3dbc2098a64a9235 *gd1981-03-13s2t04.flac
a560e1d4e3d5219e0e23da1ea36929ee *gd1981-03-13s2t05.flac
c1a3d93faded5440da353d88e971a923 *gd1981-03-13s2t06.flac
6b9a53a78726bcf0db9d8d31b2f87ea4 *gd1981-03-13s2t07.flac
bb06105aef77a9a63d6edfa6cb56d88f *gd1981-03-13s2t08.flac
bd0ce669a1a5d0737b8443372c3111f0 *gd1981-03-13s2t09.flac
f5a233f7532cca2e3121e7a70cca5aa1 *gd1981-03-13s2t10.flac
726078a3ca8a7242cedca699220c601e *gd1981-03-13s2t11.flac
207a71c42149f3b349002cf05d82f6d9 *gd1981-03-13s2t12.flac
f6d0c9b03d2004e89da88587af55d707 *gd1981-03-13s2t13.flac
ffp
gd1981-03-13s1t01.flac:ba6c55a41d00c51cf2d4fc628b6fcfb7
gd1981-03-13s1t02.flac:3beed5c14756237ad7ade7e0964aa4d9
gd1981-03-13s1t03.flac:cc44ce21bfb7e36e2dd5d0f3ecbe6353
gd1981-03-13s1t04.flac:f217e704fed474b7305b65483014359a
gd1981-03-13s1t05.flac:fb87aec9a3dadb3880f245d6f939a329
gd1981-03-13s1t06.flac:199404183dd73a191ef1a8a424b3ed1c
gd1981-03-13s1t07.flac:24c68a93e0d2e1ed93b9ad82ae6c0262
gd1981-03-13s1t08.flac:1f1fdceecddcf98fa175d6dcd579cbaa
gd1981-03-13s1t09.flac:e945d6354c6cd535d85dd8938827ac45
gd1981-03-13s1t10.flac:f8e43ed45b19cabaf5d2dde3386ae75a
gd1981-03-13s1t11.flac:79dc8b41ea2cd8da00e6da4eac0a37e8
gd1981-03-13s2t01.flac:1bdeafd587b03272af58d1e475037fc0
gd1981-03-13s2t02.flac:7873fc1219786e10f75c8d145f136d5a
gd1981-03-13s2t03.flac:683b68a41439072dc11133b1574f2a85
gd1981-03-13s2t04.flac:ef18da5fc9071b920728f9dad530fa6c
gd1981-03-13s2t05.flac:2122029cf6b6fcf357f7f26cc5503cc1
gd1981-03-13s2t06.flac:0b0139452d46012aabfe1c2c13e9abe0
gd1981-03-13s2t07.flac:4240e98caf863a47d094bbd2bc5929eb
gd1981-03-13s2t08.flac:bcb339783672c7a1e648570a3a9aa2ee
gd1981-03-13s2t09.flac:bd12d43c14c61c0e0b345b2ab37408e9
gd1981-03-13s2t10.flac:167aaf27c06911ed487a84ee962bb21f
gd1981-03-13s2t11.flac:bdd8f3276599db343037a855236e2733
gd1981-03-13s2t12.flac:fcd81b75d00f9f3ec5a6e4fe90b1a371
gd1981-03-13s2t13.flac:6355a63e82c6624c3bcb4e256e5e6097

Comments
Add Comment
Other Sources (comments)
Recording by Jim Wise:... (0) flac16; Second Set... (0) flac16; Recorded by... (0) flac16; Recording... (0) flac16; Recorded by... (0) flac16; Partial Set... (1) flac16; Partial Set... (0) flac16/48kHz;... (0) flac24; Cassette... (0)
Date User Comment