Browse Collections Artists Sources   Search Dates

Add Show    List Management    Help


Grateful Dead 09/25/81
Stabler Arena, Lehigh U, Bethlehem, PA
Comments Add Comment    Source Collectors    Add to Collection    Add to Want List    History
Source # 140017 Other Sources
Entered by Matt Vernon
Checksums ffp , flac-md5
Disc Counts 0 / 0
Media Size Compressed: 1.08 GB (1159659740 bytes)
Date Circulated
Date Added
11/24/2017
11/24/2017
Source Summary flac16; Source Info: Frank Streeter's Master FOB Audience Cassette; Sennheiser 421 mics > Sony TC-D5M (Maxell MX90); Transfer Info: Cassette Master (Nakamichi CR-7A) > Tascam DA-3000 (DSF 1-bit/5.8 MHz)> KORG AudioGate 4 > Adobe Audition 3.0> TLH flac2496 
  Archive
Source Information - Download Text | Download Zip
Grateful Dead
Stabler Arena
Lehigh University
Bethlehem, PA
Friday September 25, 1981

This is a 16/44 fileset. 24 bit to 16 bit via dBpoweramp

Source Info:
Frank Streeter's Master FOB Audience Cassette; Sennheiser 421 mics > Sony TC-D5M (Maxell MX90)

Transfer Info:
Cassette Master (Nakamichi CR-7A) > Tascam DA-3000 (DSF 1-bit/5.8 MHz)> KORG AudioGate 4 > Adobe Audition 3.0> TLH flac2496

Notes:
- Thanks to Frank Streeter for the master recording
- Thanks to Charlie Miller for the transfer
- Thanks to the folks responsible for the shnid139467 nak300 source which supplies the last 0:28 of "Saint Of Circumstance" and first 8:33 of "Drums"
- Between song transitions smoothed

Transfer by Charlie Miller
Mastered by Scott Clugston
11/18/17

Set One:
s1 t01. Crowd / Tuning
s1 t02. New Minglewood Blues
s1 t03. Friend Of The Devil ->
s1 t04. El Paso
s1 t05. Peggy O ->
s1 t06. Little Red Rooster
s1 t07. Bird Song ->
s1 t08. Beat It On Down The Line
s1 t09. Crowd / Tuning
s1 t10. Cumberland Blues
s1 t11. Passenger
s1 t12. Althea
s1 t13. The Music Never Stopped

Set Two:
s2 t01. Might as Well ->
s2 t02. Samson & Delilah
s2 t03. Scarlet Begonias ->
s2 t04. Fire On The Mountain
s2 t05. Never Trust A Woman ->
s2 t06. Lost Sailor ->
s2 t07. Saint Of Circumstance ->
s2 t08. Drums ->
s2 t09. Space ->
s2 t10. The Wheel ->
s2 t11. Sugar Magnolia ->
s2 t12. Black Peter ->
s2 t13. Around & Around ->
s2 t14. Sunshine Daydream
Encore:
s2 t15. US Blues



      length     expanded size    cdr  WAVE problems  fmt   ratio  filename
     1:12.56       12832556 B   ---   --   ---xx   flac  0.5594  gd81-09-25 s1 t01 Crowd_Tuning.flac
     7:00.52       74210348 B   ---   --   ---xx   flac  0.6590  gd81-09-25 s1 t02 New Minglewood Blues.flac
     9:08.22       96718988 B   ---   --   ---xx   flac  0.6180  gd81-09-25 s1 t03 Friend Of The Devil.flac
     5:13.42       55312028 B   ---   --   ---xx   flac  0.6163  gd81-09-25 s1 t04 El Paso.flac
     6:35.46       69786236 B   ---   --   ---xx   flac  0.5932  gd81-09-25 s1 t05 Peggy O.flac
     8:23.13       88759820 B   ---   --   ---xx   flac  0.6252  gd81-09-25 s1 t06 Little Red Rooster.flac
    10:29.48      111068540 B   ---   --   ---xx   flac  0.6215  gd81-09-25 s1 t07 Bird Song.flac
     3:05.46       32742236 B   ---   --   ---xx   flac  0.6470  gd81-09-25 s1 t08 Beat It On Down the Line.flac
     2:34.11       27191516 B   ---   --   ---xx   flac  0.5593  gd81-09-25 s1 t09 Crowd_Tuning.flac
     5:49.71       61730636 B   ---   --   ---xx   flac  0.6361  gd81-09-25 s1 t10 Cumberland Blues.flac
     5:23.58       57113660 B   ---   --   ---xx   flac  0.6489  gd81-09-25 s1 t11 Passenger.flac
     8:54.37       94284668 B   ---   --   ---xx   flac  0.6160  gd81-09-25 s1 t12 Althea.flac
     8:28.45       89717084 B   ---   --   ---xx   flac  0.6450  gd81-09-25 s1 t13 The Music Never Stopped.flac
     5:01.04       53105852 B   ---   --   ---xx   flac  0.6289  gd81-09-25 s2 t01 Might as Well.flac
     8:19.69       88185932 B   ---   --   ---xx   flac  0.6254  gd81-09-25 s2 t02 Samson & Delilah.flac
    11:26.18      121052780 B   ---   --   ---xx   flac  0.6127  gd81-09-25 s2 t03 Scarlet Begonias.flac
    10:11.17      107820428 B   ---   --   ---xx   flac  0.6088  gd81-09-25 s2 t04 Fire On The Mountain.flac
     6:22.07       67401308 B   ---   --   ---xx   flac  0.5960  gd81-09-25 s2 t05 Never Trust A Woman.flac
     6:29.25       68678444 B   ---   --   ---xx   flac  0.5827  gd81-09-25 s2 t06 Lost Sailor.flac
     7:32.22       79784588 B   ---   --   ---xx   flac  0.6167  gd81-09-25 s2 t07 Saint Of Circumstance.flac
     7:11.63       76176620 B   ---   --   ---xx   flac  0.4767  gd81-09-25 s2 t08 Drums.flac
     3:41.53       39109100 B   ---   --   ---xx   flac  0.5070  gd81-09-25 s2 t09 Space.flac
     5:54.46       62553836 B   ---   --   ---xx   flac  0.5895  gd81-09-25 s2 t10 The Wheel.flac
     5:12.16       55074476 B   ---   --   ---xx   flac  0.6184  gd81-09-25 s2 t11 Sugar Magnolia.flac
     8:29.49       89902892 B   ---   --   ---xx   flac  0.5722  gd81-09-25 s2 t12 Black Peter.flac
     3:43.24       39393692 B   ---   --   ---xx   flac  0.6068  gd81-09-25 s2 t13 Around & Around.flac
     3:28.57       36825308 B   ---   --   ---xx   flac  0.6201  gd81-09-25 s2 t14 Sunshine Daydream.flac
     5:03.38       53538620 B   ---   --   ---xx   flac  0.5999  gd81-09-25 s2 t15 US Blues.flac
   180:28.05     1910072192 B                            0.6071  (28 files)

No errors occured.




Show Checksums
ffp
gd81-09-25 s1 t01 Crowd_Tuning.flac:a4cd37c52ca5e886ff8e30f64961c722
gd81-09-25 s1 t02 New Minglewood Blues.flac:782643329fe330c0b0ad35d1d6158c9e
gd81-09-25 s1 t03 Friend Of The Devil.flac:44406b863a9c3f9e94eefb20273529ff
gd81-09-25 s1 t04 El Paso.flac:56176cb60ea8e946f4981743a9056496
gd81-09-25 s1 t05 Peggy O.flac:142f372c91ff0e3c31d355e2d7d6d792
gd81-09-25 s1 t06 Little Red Rooster.flac:98f59f8b4542875541c40f46b746e2e9
gd81-09-25 s1 t07 Bird Song.flac:6a3e0391b47447ace0896c8a8ba9c144
gd81-09-25 s1 t08 Beat It On Down the Line.flac:87f16f3e4319fbe1768aec2744286e14
gd81-09-25 s1 t09 Crowd_Tuning.flac:2f2702b3b3b8da6afd86baf2623cc046
gd81-09-25 s1 t10 Cumberland Blues.flac:7a871edd82b7a35dd4bb46d7bae18d05
gd81-09-25 s1 t11 Passenger.flac:0484b2f40a9727754864844526a3bb18
gd81-09-25 s1 t12 Althea.flac:9105afaf29528c4bd959f445c8b13c1b
gd81-09-25 s1 t13 The Music Never Stopped.flac:d88ff22ea3a8f5b8e8068cc1092b0edb
gd81-09-25 s2 t01 Might as Well.flac:d038508925c9cca307fe3b3e6088464f
gd81-09-25 s2 t02 Samson & Delilah.flac:148fe713570c33f15dc207841260565e
gd81-09-25 s2 t03 Scarlet Begonias.flac:9dec3a3fe00a6b98b805c69ac9e8c801
gd81-09-25 s2 t04 Fire On The Mountain.flac:88ef4fb3be830bd5f545d438a2254f91
gd81-09-25 s2 t05 Never Trust A Woman.flac:02324553d03ccd9b89e31803ac3f1d0c
gd81-09-25 s2 t06 Lost Sailor.flac:d15d58122cadd3db7df07399119dc001
gd81-09-25 s2 t07 Saint Of Circumstance.flac:54d51c8f39d7bfb8aab48eb2709b2204
gd81-09-25 s2 t08 Drums.flac:545d18da54119a1ede5da2082fe4852b
gd81-09-25 s2 t09 Space.flac:97a98070758f55bea55d823317f04228
gd81-09-25 s2 t10 The Wheel.flac:1dcabec52901148852a6630cd9ffd945
gd81-09-25 s2 t11 Sugar Magnolia.flac:776b5f3ed533d9d5bff7dc02cc393e65
gd81-09-25 s2 t12 Black Peter.flac:fd3efed9e50cfed098ab2f45b677417e
gd81-09-25 s2 t13 Around & Around.flac:a57cdce7e6f2746ea3c34c280a6d63a3
gd81-09-25 s2 t14 Sunshine Daydream.flac:26673d1a641d7f4573e9335b38adc074
gd81-09-25 s2 t15 US Blues.flac:144e0049b594cd7353d83c7e6e0d65c9
flac-md5
27971c54b441fca581b50daa81029ec3 *gd81-09-25 s1 t01 Crowd_Tuning.flac
962560340651c36d9a74a804772ea943 *gd81-09-25 s1 t02 New Minglewood Blues.flac
67867ef8bf47b08b432fab1068247728 *gd81-09-25 s1 t03 Friend Of The Devil.flac
2ecc1fb6a7b12609a630c7ac28a1ec1f *gd81-09-25 s1 t04 El Paso.flac
17710a455b34558c7012189b36df5962 *gd81-09-25 s1 t05 Peggy O.flac
d517041edcc3f1f92c1bc67a8fb023eb *gd81-09-25 s1 t06 Little Red Rooster.flac
9dd4923ab8d541478d23b2ee84f51018 *gd81-09-25 s1 t07 Bird Song.flac
492bba0630ed76e56ca75333ff155a7f *gd81-09-25 s1 t08 Beat It On Down the Line.flac
d083ac05b5b471cb6a3e19176a0f6525 *gd81-09-25 s1 t09 Crowd_Tuning.flac
5084eb492a931b7ea2f6b15a1219fbfc *gd81-09-25 s1 t10 Cumberland Blues.flac
73d3f33ea2e0efd2100678955f547439 *gd81-09-25 s1 t11 Passenger.flac
a6414a6c55cdf4bcff560e56827e8929 *gd81-09-25 s1 t12 Althea.flac
41d1e6b15dcbe3baddf1c7b934797e7f *gd81-09-25 s1 t13 The Music Never Stopped.flac
bfeb02ee17936a13f699f79ea492f35f *gd81-09-25 s2 t01 Might as Well.flac
64e6bcafcb1b6639998a8fda368a68b0 *gd81-09-25 s2 t02 Samson & Delilah.flac
340490530efeff5a30c0e0ad0f9bc038 *gd81-09-25 s2 t03 Scarlet Begonias.flac
bc8ea2b6a3d350151f383f92b386953f *gd81-09-25 s2 t04 Fire On The Mountain.flac
04a274ea8674fa9c5c604332b89eb0b9 *gd81-09-25 s2 t05 Never Trust A Woman.flac
a47a7684061e4e3f47d9cb81336cac32 *gd81-09-25 s2 t06 Lost Sailor.flac
53d57fc1deb3f1a0d1308ea29bfbde52 *gd81-09-25 s2 t07 Saint Of Circumstance.flac
36e73ed1a964873d6e4d328fba452674 *gd81-09-25 s2 t08 Drums.flac
dbf2256c62d7bfae7bed6659f6123e0c *gd81-09-25 s2 t09 Space.flac
1e8d0eacfb38a0d1a7e6c2f039548227 *gd81-09-25 s2 t10 The Wheel.flac
9504610ac5fddb79e4534dbaf22bfeda *gd81-09-25 s2 t11 Sugar Magnolia.flac
4abf320bb03b066077080481ad4d2cc6 *gd81-09-25 s2 t12 Black Peter.flac
e5052a79219526f5623f6182965bbac4 *gd81-09-25 s2 t13 Around & Around.flac
02e3b33b5b1b15a8d1d175c1fd273b59 *gd81-09-25 s2 t14 Sunshine Daydream.flac
b40e18ce1efdbaea761166678d57b3a0 *gd81-09-25 s2 t15 US Blues.flac

Comments
Add Comment
Other Sources (comments)
Master Soundboard Cassette... (17) Source: MAC>DAT>CDR... (3) Recording by Steve Rolfe.... (0) flac16; Recording... (0) flac16; Source info:... (1) flac24; Source Info:... (0)
Date User Comment