Browse Collections Artists Sources   Search Dates

Add Show    List Management    Help


Grateful Dead 09/25/81
Stabler Arena, Lehigh U, Bethlehem, PA
Comments Add Comment    Source Collectors    Add to Collection    Add to Want List    History
Source # 140018 Other Sources
Entered by Matt Vernon
Checksums flac-md5 , ffp
Disc Counts 0 / 0
Media Size Compressed: 3.85 GB (4133090037 bytes)
Date Circulated
Date Added
11/24/2017
11/24/2017
Source Summary flac24; Source Info: Frank Streeter's Master FOB Audience Cassette; Sennheiser 421 mics > Sony TC-D5M (Maxell MX90); Transfer Info: Cassette Master (Nakamichi CR-7A) > Tascam DA-3000 (DSF 1-bit/5.8 MHz)> KORG AudioGate 4 > Adobe Audition 3.0> TLH flac2496 
  Archive
Source Information - Download Text | Download Zip
Grateful Dead
Stabler Arena
Lehigh University
Bethlehem, PA
Friday September 25, 1981

Source Info:
Frank Streeter's Master FOB Audience Cassette; Sennheiser 421 mics > Sony TC-D5M (Maxell MX90)

Transfer Info:
Cassette Master (Nakamichi CR-7A) > Tascam DA-3000 (DSF 1-bit/5.8 MHz)> KORG AudioGate 4 > Adobe Audition 3.0> TLH flac2496

Notes:
- Thanks to Frank Streeter for the master recording
- Thanks to Charlie Miller for the transfer
- Thanks to the folks responsible for the shnid139467 nak300 source which supplies the last 0:28 of "Saint Of Circumstance" and first 8:33 of "Drums"
- Between song transitions smoothed

Transfer by Charlie Miller
Mastered by Scott Clugston
11/18/17

Set One:
s1 t01. Crowd / Tuning
s1 t02. New Minglewood Blues
s1 t03. Friend Of The Devil ->
s1 t04. El Paso
s1 t05. Peggy O ->
s1 t06. Little Red Rooster
s1 t07. Bird Song ->
s1 t08. Beat It On Down The Line
s1 t09. Crowd / Tuning
s1 t10. Cumberland Blues
s1 t11. Passenger
s1 t12. Althea
s1 t13. The Music Never Stopped

Set Two:
s2 t01. Might as Well ->
s2 t02. Samson & Delilah
s2 t03. Scarlet Begonias ->
s2 t04. Fire On The Mountain
s2 t05. Never Trust A Woman ->
s2 t06. Lost Sailor ->
s2 t07. Saint Of Circumstance ->
s2 t08. Drums ->
s2 t09. Space ->
s2 t10. The Wheel ->
s2 t11. Sugar Magnolia ->
s2 t12. Black Peter ->
s2 t13. Around & Around ->
s2 t14. Sunshine Daydream
Encore:
s2 t15. US Blues



       length     expanded size    cdr  WAVE problems  fmt   ratio  filename
     1:12.747      41902124 B   cxx   --   ---xx   flac  0.6408  gd81-09-25 s1 t01 Crowd_Tuning.flac
     7:00.693     242319404 B   cxx   --   ---xx   flac  0.6872  gd81-09-25 s1 t02 New Minglewood Blues.flac
     9:08.293     315817004 B   cxx   --   ---xx   flac  0.6698  gd81-09-25 s1 t03 Friend Of The Devil.flac
     5:13.560     180610604 B   cxx   --   ---xx   flac  0.6696  gd81-09-25 s1 t04 El Paso.flac
     6:35.613     227873324 B   cxx   --   ---xx   flac  0.6615  gd81-09-25 s1 t05 Peggy O.flac
     8:23.173     289827884 B   cxx   --   ---xx   flac  0.6733  gd81-09-25 s1 t06 Little Red Rooster.flac
    10:29.640     362672684 B   cxx   --   ---xx   flac  0.6715  gd81-09-25 s1 t07 Bird Song.flac
     3:05.613     106913324 B   cxx   --   ---xx   flac  0.6817  gd81-09-25 s1 t08 Beat It On Down the Line.flac
     2:34.147      88788524 B   cxx   --   ---xx   flac  0.6512  gd81-09-25 s1 t09 Crowd_Tuning.flac
     5:49.947     201569324 B   cxx   --   ---xx   flac  0.6780  gd81-09-25 s1 t10 Cumberland Blues.flac
     5:23.773     186493484 B   cxx   --   ---xx   flac  0.6836  gd81-09-25 s1 t11 Passenger.flac
     8:54.493     307868204 B   cxx   --   ---xx   flac  0.6701  gd81-09-25 s1 t12 Althea.flac
     8:28.601     292954478 B   cxx   --   ---xx   flac  0.6812  gd81-09-25 s1 t13 The Music Never Stopped.flac
     5:01.053     173406764 B   cxx   --   ---xx   flac  0.6762  gd81-09-25 s2 t01 Might as Well.flac
     8:19.920     287953964 B   cxx   --   ---xx   flac  0.6739  gd81-09-25 s2 t02 Samson & Delilah.flac
    11:26.240     395274284 B   cxx   --   ---xx   flac  0.6667  gd81-09-25 s2 t03 Scarlet Begonias.flac
    10:11.227     352066604 B   cxx   --   ---xx   flac  0.6665  gd81-09-25 s2 t04 Fire On The Mountain.flac
     6:22.093     220085804 B   cxx   --   ---xx   flac  0.6619  gd81-09-25 s2 t05 Never Trust A Woman.flac
     6:29.333     224256044 B   cxx   --   ---xx   flac  0.6572  gd81-09-25 s2 t06 Lost Sailor.flac
     7:32.293     260521004 B   cxx   --   ---xx   flac  0.6571  gd81-09-25 s2 t07 Saint Of Circumstance.flac
     7:11.840     248739884 B   cxx   --   ---xx   flac  0.5349  gd81-09-25 s2 t08 Drums.flac
     3:41.707     127703084 B   cxx   --   ---xx   flac  0.6301  gd81-09-25 s2 t09 Space.flac
     5:54.613     204257324 B   cxx   --   ---xx   flac  0.6605  gd81-09-25 s2 t10 The Wheel.flac
     5:12.213     179834924 B   cxx   --   ---xx   flac  0.6710  gd81-09-25 s2 t11 Sugar Magnolia.flac
     8:29.653     293560364 B   cxx   --   ---xx   flac  0.6537  gd81-09-25 s2 t12 Black Peter.flac
     3:43.320     128632364 B   cxx   --   ---xx   flac  0.6666  gd81-09-25 s2 t13 Around & Around.flac
     3:28.760     120245804 B   cxx   --   ---xx   flac  0.6726  gd81-09-25 s2 t14 Sunshine Daydream.flac
     5:03.493     174812090 B   cxx   --   ---xx   flac  0.6619  gd81-09-25 s2 t15 US Blues.flac
   180:28.055    6236960672 B                            0.6627  (28 files)

No errors occured.



Show Checksums
flac-md5
cc6aa09da2c23ff1762a3d818f26eabe *gd81-09-25 s1 t01 Crowd_Tuning.flac
fb7676cceabc7a20749b659f4a67bc95 *gd81-09-25 s1 t02 New Minglewood Blues.flac
4db3557e378000227b361404f16558e8 *gd81-09-25 s1 t03 Friend Of The Devil.flac
00c89b94a8ba09a4a35ccd0c2a02b3a0 *gd81-09-25 s1 t04 El Paso.flac
170c51e11f18a665babc318c3f2062f0 *gd81-09-25 s1 t05 Peggy O.flac
4bd93cd899c92b2be1fff29470515e3c *gd81-09-25 s1 t06 Little Red Rooster.flac
4b5df3433d5c4ac482d6a3d068ac0009 *gd81-09-25 s1 t07 Bird Song.flac
ca447d2a94e1b740232061f6039c80d1 *gd81-09-25 s1 t08 Beat It On Down the Line.flac
8379f59215c21c4529e30b1fdd309c78 *gd81-09-25 s1 t09 Crowd_Tuning.flac
4b1df8663f858236da84bc26b34f9301 *gd81-09-25 s1 t10 Cumberland Blues.flac
58b7f06818148d70e4b1bd9dd30aab36 *gd81-09-25 s1 t11 Passenger.flac
611bdf36cbdb8e5d2d5ed42d58165502 *gd81-09-25 s1 t12 Althea.flac
0be56fc9b4d5fc8c0cf87f041c8d1eee *gd81-09-25 s1 t13 The Music Never Stopped.flac
da1b316ca30ab7937d0364fad81159ed *gd81-09-25 s2 t01 Might as Well.flac
bb4be93763f31563857ba2d6a23a2ac0 *gd81-09-25 s2 t02 Samson & Delilah.flac
b12cc0a5be473a695575dce495ce95c0 *gd81-09-25 s2 t03 Scarlet Begonias.flac
05381a4120ff9952fb58794283b5954a *gd81-09-25 s2 t04 Fire On The Mountain.flac
3a3651fe6397a4afda2634ab219d43b8 *gd81-09-25 s2 t05 Never Trust A Woman.flac
627d3370fce082bbbd4e5c02ebb8804f *gd81-09-25 s2 t06 Lost Sailor.flac
6fd08de4981cffe28f4664c25568767f *gd81-09-25 s2 t07 Saint Of Circumstance.flac
6a31e383d44e95c038860411cdaf31b4 *gd81-09-25 s2 t08 Drums.flac
d0a035c8e7cc5ee1e548f8533847b49f *gd81-09-25 s2 t09 Space.flac
abd7ba2cdae3ed50d526ae30df215ed7 *gd81-09-25 s2 t10 The Wheel.flac
c8977106d6fd4a70dbacded377382bc9 *gd81-09-25 s2 t11 Sugar Magnolia.flac
a6adaa8413e839c5a71fe82a244e5715 *gd81-09-25 s2 t12 Black Peter.flac
b32981a9cadef7a99818eaba6b73360c *gd81-09-25 s2 t13 Around & Around.flac
b2df0bacab7b9375e3e446d722287188 *gd81-09-25 s2 t14 Sunshine Daydream.flac
64c2bc2174ffcca3b0460274a4d6d3cc *gd81-09-25 s2 t15 US Blues.flac
ffp
gd81-09-25 s1 t01 Crowd_Tuning.flac:7843ba5ac2809a37b46706ae78aebc1e
gd81-09-25 s1 t02 New Minglewood Blues.flac:058ce6d53d54b89fea54edd37deaadc2
gd81-09-25 s1 t03 Friend Of The Devil.flac:caab3af45bdc6b6f3c091e779a563772
gd81-09-25 s1 t04 El Paso.flac:c40414334e5471e7545f92d4f2eafe5f
gd81-09-25 s1 t05 Peggy O.flac:0cf0d050433ecbd6f04f040974ab5719
gd81-09-25 s1 t06 Little Red Rooster.flac:3474f23ee93b08a5ad4ff067af019033
gd81-09-25 s1 t07 Bird Song.flac:27b0597b1c09ce51c9a9a24355a6d30e
gd81-09-25 s1 t08 Beat It On Down the Line.flac:cb0afe203d7339d847e5d3b9dbeb69e2
gd81-09-25 s1 t09 Crowd_Tuning.flac:bd91736dd313802e60395805d7bcc9db
gd81-09-25 s1 t10 Cumberland Blues.flac:8594b573048eeb931d59d6976796c564
gd81-09-25 s1 t11 Passenger.flac:b4d04315d415aae49d69cd55f5cfacd1
gd81-09-25 s1 t12 Althea.flac:fcd7a6543a6f935667402087e6449600
gd81-09-25 s1 t13 The Music Never Stopped.flac:9ff325eaafee21e3033ec7cfd1185005
gd81-09-25 s2 t01 Might as Well.flac:6f0c05330552771aaca0ccc0fd04b701
gd81-09-25 s2 t02 Samson & Delilah.flac:4ad05a08fb7dc32c06ab26d029c7068e
gd81-09-25 s2 t03 Scarlet Begonias.flac:a940b2361cf1ea585aa09abbc83bd653
gd81-09-25 s2 t04 Fire On The Mountain.flac:db2fa4d5968e4e8cc1acb011dd918d9c
gd81-09-25 s2 t05 Never Trust A Woman.flac:f568960dfd985da1909acc671be61481
gd81-09-25 s2 t06 Lost Sailor.flac:3681314d97a006aa155bf6c9412a56ab
gd81-09-25 s2 t07 Saint Of Circumstance.flac:c74ef19969264839d92529178000f853
gd81-09-25 s2 t08 Drums.flac:1ccc667f07988ebda026201f27858dda
gd81-09-25 s2 t09 Space.flac:658c80d6b5653d35b30eac9a899a4a5e
gd81-09-25 s2 t10 The Wheel.flac:839915670c6738dd876f112064eb5bfe
gd81-09-25 s2 t11 Sugar Magnolia.flac:fceca610f930671e8684a8a3fa5b776f
gd81-09-25 s2 t12 Black Peter.flac:09c6c76d768808926ad93614e2eb231a
gd81-09-25 s2 t13 Around & Around.flac:6db14c8e9c09c35b98074b6e69d72500
gd81-09-25 s2 t14 Sunshine Daydream.flac:b23d916fd7e0e658d5c947ae042342c6
gd81-09-25 s2 t15 US Blues.flac:84316033ca42dc41f8b2d1ffdfe96471

Comments
Add Comment
Other Sources (comments)
Master Soundboard Cassette... (17) Source: MAC>DAT>CDR... (3) Recording by Steve Rolfe.... (0) flac16; Recording... (0) flac16; Source info:... (1) flac16; Source Info:... (0)
Date User Comment