Browse Collections Artists Sources   Search Dates

Add Show    List Management    Help


Grateful Dead 09/26/81
Community War Memorial Auditorium, Buffalo, NY
Comments Add Comment    Source Collectors    Add to Collection    Add to Want List    History
Source # 140027 Other Sources
Entered by Matt Vernon
Checksums orig-ffp , flac-md5 , ffp
Disc Counts 0 / 0
Media Size
Date Circulated
Date Added
11/26/2017
11/26/2017
Source Summary flac16; Set 2 Recording Info: Dan Healy's Master Soundboard Cassette (Sony TC-D5)> Cassette (Sony TC-D5 > Maxell UDXL-II); Transfer Info: 1st generation cassette (Nakamichi CR-7A) > Tascam DA-3000 (DSF 1-bit/5.8 MHz)> KORG AudioGate 4 > Adobe Audition 3.0> TLH flac2496; the original source had the channels reversed; please don't circulate that source 
  Archive
Source Information - Download Text | Download Zip
Grateful Dead
War Memorial Auditorium
Buffalo, NY
Saturday September 26, 1981

This is a 16/44 fileset. 24 bit to 16 bit via dBpoweramp

Recording Info:
Dan Healy's Master Soundboard Cassette (Sony TC-D5)> Frank Streeter's 1st gen Cassette (Sony TC-D5 > Maxell UDXL-II)

Transfer Info:
1st generation cassette (Nakamichi CR-7A) > Tascam DA-3000 (DSF 1-bit/5.8 MHz)> KORG AudioGate 4 > Adobe Audition 3.0> TLH flac2496

Notes:
- Thanks to Frank Streeter for the source cassette
- Thanks to Charlie Miller for the transfer
- Thanks to Charlie Miller for the shnid18110 soundboard source which supplies "Playing In The Band", "Bertha" and "Estimated Prophet, and also to Chris Chappell for the shnid30117 matrix source that supplies the first 0:31 of "Going Down The Road Feeling Bad"
- Channels corrected
- Thanks to miles1960 for bringing the channel issue to my attention
- Not Fade Away space included in "Not Fade Away"

Transfer by Charlie Miller
Mastered by Scott Clugston
11/26/17

Set 2:
s2t01 - Tuning
s2t02 - Playing In The Band ->
s2t03 - Bertha ->
s2t04 - Estimated Prophet ->
s2t05 - Goin' Down The Road Feeling Bad ->
s2t06 - Drums ->
s2t07 - Space ->
s2t08 - Not Fade Away ->
s2t09 - Morning Dew ->
s2t10 - Playing In The Band Reprise ->
s2t11 - One More Saturday Night

Encore:
s2t12 - Johnny B. Goode



     length     expanded size    cdr  WAVE problems  fmt   ratio  filename
     1:01.05       10772204 B   ---   --   ---xx   flac  0.4688  gd81-09-26 s2 t01 Tuning.flac
    10:11.47      107890988 B   ---   --   ---xx   flac  0.6203  gd81-09-26 s2 t02 Playing In The Band.flac
     6:53.27       72916748 B   ---   --   ---xx   flac  0.6045  gd81-09-26 s2 t03 Bertha.flac
    10:20.10      109391564 B   ---   --   ---xx   flac  0.5952  gd81-09-26 s2 t04 Estimated Prophet.flac
     7:07.44       75426332 B   ---   --   ---xx   flac  0.6004  gd81-09-26 s2 t05 Going Down The Road Feeling Bad.flac
     8:39.37       91638668 B   ---   --   ---xx   flac  0.5348  gd81-09-26 s2 t06 Drums.flac
     2:39.03       28054700 B   ---   --   ---xx   flac  0.5649  gd81-09-26 s2 t07 Space.flac
     5:35.62       59239868 B   ---   --   ---xx   flac  0.5629  gd81-09-26 s2 t08 Not Fade Away.flac
    10:07.13      107105420 B   ---   --   ---xx   flac  0.5589  gd81-09-26 s2 t09 Morning Dew.flac
     2:47.45       29564684 B   ---   --   ---xx   flac  0.5743  gd81-09-26 s2 t10 Playing Reprise.flac
     5:12.35       55119164 B   ---   --   ---xx   flac  0.5748  gd81-09-26 s2 t11 One More Saturday Night.flac
     4:16.27       45221948 B   ---   --   ---xx   flac  0.5851  gd81-09-26 s2 t12 Johnny B. Goode.flac
    74:51.55      792342288 B                            0.5801  (12 files)

No errors occured.



Show Checksums
orig-ffp
gd81-09-26 s2 t01 Tuning.flac:390e9db191dfb40d73c6f6cd90de4aec
gd81-09-26 s2 t02 Playing In The Band.flac:7780874d291b1b2884e5cd365e5300b9
gd81-09-26 s2 t03 Bertha.flac:1c0ca39a032a327fb735f275d8a6fbc1
gd81-09-26 s2 t04 Estimated Prophet.flac:1e0366a4a9d4901c6a7f6bd78d836017
gd81-09-26 s2 t05 Going Down The Road Feeling Bad.flac:751c411a2d2764cf69f86d9c3a9fbcb5
gd81-09-26 s2 t06 Drums.flac:355709213c9b6af60f5b9a298fa15227
gd81-09-26 s2 t07 Space.flac:c82135e301bf5514edf0d7c39ef5f72b
gd81-09-26 s2 t08 Not Fade Away.flac:e65f1286db85187ea019a421edd87957
gd81-09-26 s2 t09 Morning Dew.flac:a86642d1fbdf7653e23ffb203a39e5db
gd81-09-26 s2 t10 Playing Reprise.flac:779fc98fc3a5493a6cb5429940028a0f
gd81-09-26 s2 t11 One More Saturday Night.flac:636d2d8f00c9873a315c76220a3a211c
gd81-09-26 s2 t12 Johnny B. Goode.flac:7a6d4cbf52df684ac587cecf2cb7d4c6
flac-md5
d3b0a55d362f4908aa28464fdd9bd1d2 *gd81-09-26 s2 t01 Tuning.flac
f95119c7c0507785e5776c79fbff2846 *gd81-09-26 s2 t02 Playing In The Band.flac
a5fc2a9a1623c805a827a44b8e569dd2 *gd81-09-26 s2 t03 Bertha.flac
98e37533016104b1341a0e93b9e29c77 *gd81-09-26 s2 t04 Estimated Prophet.flac
56a161b1aa067643d3b19b3faad0bcba *gd81-09-26 s2 t05 Going Down The Road Feeling Bad.flac
b35fe4267945e81797a66bf465448fae *gd81-09-26 s2 t06 Drums.flac
abe69caa8885b1597bd0665d802e8635 *gd81-09-26 s2 t07 Space.flac
77ef35768e3f719bbd4f65f8d56b3a80 *gd81-09-26 s2 t08 Not Fade Away.flac
1e2b72abc5567f6b8151d6f1a6881708 *gd81-09-26 s2 t09 Morning Dew.flac
588d8d6572db7706b15b63a6a25ffeb6 *gd81-09-26 s2 t10 Playing Reprise.flac
3fd06e59a5f2e959798c820a4a9bdb42 *gd81-09-26 s2 t11 One More Saturday Night.flac
81b98f7557cc7b4268f1888a175e247d *gd81-09-26 s2 t12 Johnny B. Goode.flac
ffp
gd81-09-26 s2 t01 Tuning.flac:c31a026f873bbe21cd8bfb1dba56409d
gd81-09-26 s2 t02 Playing In The Band.flac:61093ef7ccc0fb5ad1b94d32275e0e0b
gd81-09-26 s2 t03 Bertha.flac:5a3783e8b0647495b6f46086c76acfbe
gd81-09-26 s2 t04 Estimated Prophet.flac:3f2663ae55b026681a3eb28690aae4ac
gd81-09-26 s2 t05 Going Down The Road Feeling Bad.flac:ab0ee76070c215710f452647ea42de6f
gd81-09-26 s2 t06 Drums.flac:64bfbf265d9af5a72c14f2a29a6dadbf
gd81-09-26 s2 t07 Space.flac:b4e5fe409ce5f45e00d5d57a2705d4d9
gd81-09-26 s2 t08 Not Fade Away.flac:77fc1b3657c717681be6b48bc3b621f7
gd81-09-26 s2 t09 Morning Dew.flac:852e54353b2b4ae4939f000027a273d9
gd81-09-26 s2 t10 Playing Reprise.flac:0ceb18d8469b93d1b6de30603f018d3c
gd81-09-26 s2 t11 One More Saturday Night.flac:314862c084950f0e9525bb80f725bd1f
gd81-09-26 s2 t12 Johnny B. Goode.flac:b27784aa63bb7e4ac9466699d788dea4

Comments
Add Comment
Other Sources (comments)
AUD>MC>?>CD; via Scott... (1) Recording by Dan Healy. Set... (1) SBD>Cm>Cass>Dat>CD with aud... (0) flac16; Sick Bits... (0) flac16: AUD: 2x... (0) flac24; Set 2... (2)
Date User Comment
11/27/2017 Wharfrat73 Updated checksuns and info file for the fixed version
11/27/2017 mvernon updated notes and Recorded by ... per instructions from Scott