Browse Collections Artists Sources   Search Dates

Add Show    List Management    Help


Grateful Dead 09/26/81
Community War Memorial Auditorium, Buffalo, NY
Comments Add Comment    Source Collectors    Add to Collection    Add to Want List    History
Source # 140028 Other Sources
Entered by Matt Vernon
Checksums ffp , orig-ffp , flac-md5
Disc Counts 0 / 0
Media Size
Date Circulated
Date Added
11/26/2017
11/26/2017
Source Summary flac24; Set 2 Recording Info: Dan Healy's Master Soundboard Cassette (Sony TC-D5)> Cassette (Sony TC-D5 > Maxell UDXL-II); Transfer Info: 1st generation cassette Nakamichi CR-7A) > Tascam DA-3000 (DSF 1-bit/5.8 MHz)> KORG AudioGate 4 > Adobe Audition 3.0> TLH flac2496; the original source had the channels reversed; please don't circulate that source 
  Archive
Source Information - Download Text | Download Zip
Grateful Dead
War Memorial Auditorium
Buffalo, NY
Saturday September 26, 1981

Recording Info:
Dan Healy's Master Soundboard Cassette (Sony TC-D5)> Frank Streeter's 1st gen Cassette (Sony TC-D5 > Maxell UDXL-II)

Transfer Info:
1st generation cassette Nakamichi CR-7A) > Tascam DA-3000 (DSF 1-bit/5.8 MHz)> KORG AudioGate 4 > Adobe Audition 3.0> TLH flac2496

Notes:
- Thanks to Frank Streeter for the source cassette
- Thanks to Charlie Miller for the transfer
- Thanks to Charlie Miller for the shnid18110 soundboard source which supplies "Playing In The Band", "Bertha" and "Estimated Prophet, and also to Chris Chappell for the shnid30117 matrix source that supplies the first 0:31 of "Going Down The Road Feeling Bad"
- Channels corrected
- Thanks to miles1960 for bringing the channel issue to my attention
- Not Fade Away space included in "Not Fade Away"


Transfer by Charlie Miller
Mastered by Scott Clugston
11/26/17


Set 2:
s2t01 - Tuning
s2t02 - Playing In The Band ->
s2t03 - Bertha ->
s2t04 - Estimated Prophet ->
s2t05 - Goin' Down The Road Feeling Bad ->
s2t06 - Drums ->
s2t07 - Space ->
s2t08 - Not Fade Away ->
s2t09 - Morning Dew ->
s2t10 - Playing In The Band Reprise->
s2t11 - One More Saturday Night

Encore:
s2t12 - Johnny B. Goode



      length     expanded size    cdr  WAVE problems  fmt   ratio  filename
     1:01.067      35174444 B   cxx   --   ---xx   flac  0.4746  gd81-09-26 s2 t01 Tuning.flac
    10:11.627     352297004 B   cxx   --   ---xx   flac  0.5956  gd81-09-26 s2 t02 Playing In The Band.flac
     6:53.360     238095404 B   cxx   --   ---xx   flac  0.5947  gd81-09-26 s2 t03 Bertha.flac
    10:20.133     357196844 B   cxx   --   ---xx   flac  0.5826  gd81-09-26 s2 t04 Estimated Prophet.flac
     7:07.587     246289964 B   cxx   --   ---xx   flac  0.6733  gd81-09-26 s2 t05 Going Down The Road Feeling Bad.flac
     8:39.493     299228204 B   cxx   --   ---xx   flac  0.6455  gd81-09-26 s2 t06 Drums.flac
     2:39.040      91607084 B   cxx   --   ---xx   flac  0.6564  gd81-09-26 s2 t07 Space.flac
     5:35.827     193436204 B   cxx   --   ---xx   flac  0.6546  gd81-09-26 s2 t08 Not Fade Away.flac
    10:07.173     349731884 B   cxx   --   ---xx   flac  0.6533  gd81-09-26 s2 t09 Morning Dew.flac
     2:47.600      96537644 B   cxx   --   ---xx   flac  0.6583  gd81-09-26 s2 t10 Playing Reprise.flac
     5:12.467     179980844 B   cxx   --   ---xx   flac  0.6587  gd81-09-26 s2 t11 One More Saturday Night.flac
     4:16.347     147655742 B   cxx   --   ---xx   flac  0.6604  gd81-09-26 s2 t12 Johnny B. Goode.flac
    74:51.720    2587231266 B                            0.6300  (12 files)

No errors occured.



Show Checksums
ffp
gd81-09-26 s2 t01 Tuning.flac:79be0a721acb7e6b1c8480277cf3b704
gd81-09-26 s2 t02 Playing In The Band.flac:9bed603be6d520a633a186dabb605bd6
gd81-09-26 s2 t03 Bertha.flac:e0c0545ad69f13d0342531ed37b19447
gd81-09-26 s2 t04 Estimated Prophet.flac:e6449bec8c19bdfb2034402346945429
gd81-09-26 s2 t05 Going Down The Road Feeling Bad.flac:03db0d0e77861c7025e1c28961cf2bb8
gd81-09-26 s2 t06 Drums.flac:47c511d4ceb5b0e12df1e4d7c8f09268
gd81-09-26 s2 t07 Space.flac:d110903f6616c40a63d6ce9ae0727295
gd81-09-26 s2 t08 Not Fade Away.flac:6fa2e2f68aee6ba65f16a2b6fb533889
gd81-09-26 s2 t09 Morning Dew.flac:5620abfd900a1227c51ccfc1b7aed68f
gd81-09-26 s2 t10 Playing Reprise.flac:7a54a6c7ea9c6dd86e7d67306b950777
gd81-09-26 s2 t11 One More Saturday Night.flac:57a4029086a690f93bcec5aa61467767
gd81-09-26 s2 t12 Johnny B. Goode.flac:016a49a751a024986c2feae5211860b6
orig-ffp
gd81-09-26 s2 t01 Tuning.flac:5deba3708e90ddd2dc914da9120dfb28
gd81-09-26 s2 t02 Playing In The Band.flac:d751f5efef57df69c2dc3960f21738f7
gd81-09-26 s2 t03 Bertha.flac:93cb73a8adf1d09249fef0948d635b16
gd81-09-26 s2 t04 Estimated Prophet.flac:dbccd5ef0a9a8364b707168db3a76f6a
gd81-09-26 s2 t05 Going Down The Road Feeling Bad.flac:afc7a0c0a13d1ade01539e70694d9b23
gd81-09-26 s2 t06 Drums.flac:dbc1a09418a0af43fe8ac5fc274b4f3e
gd81-09-26 s2 t07 Space.flac:ae5f8eb321f25cad233f88cc7673572b
gd81-09-26 s2 t08 Not Fade Away.flac:14ad6d5eea0ba0c377bf81ef6d3f23f6
gd81-09-26 s2 t09 Morning Dew.flac:643169937a9b713dfbd6f9b088e324b1
gd81-09-26 s2 t10 Playing Reprise.flac:ed56a4ee71c85a8c180e7001221c45a1
gd81-09-26 s2 t11 One More Saturday Night.flac:030b1908980e55b52fefc4da57ebcb01
gd81-09-26 s2 t12 Johnny B. Goode.flac:eedc6f74f27f1383e7506127d078c6ec
flac-md5
afd8e663cef8106e3e7d0db722c6e9af *gd81-09-26 s2 t01 Tuning.flac
b0223f9569de03a784a92381fde37ea3 *gd81-09-26 s2 t02 Playing In The Band.flac
5a5db6d5e0dc8eb2f3c0c2e63d0c7116 *gd81-09-26 s2 t03 Bertha.flac
ac9d4fe682a0cf4f29fcd8ef5efa0c9a *gd81-09-26 s2 t04 Estimated Prophet.flac
5202d851f83ab7989476666919e3a282 *gd81-09-26 s2 t05 Going Down The Road Feeling Bad.flac
3c7f48ad7a56f7c817e40d7f6e90d9b7 *gd81-09-26 s2 t06 Drums.flac
135b015d24ef1ae415a5bea5093d06e6 *gd81-09-26 s2 t07 Space.flac
672a7a498e569e73d4dd557d22ed0fbd *gd81-09-26 s2 t08 Not Fade Away.flac
b985df0640c9157cd3280add59c305d6 *gd81-09-26 s2 t09 Morning Dew.flac
ffee18c56f11026469a8fc33d993fb0a *gd81-09-26 s2 t10 Playing Reprise.flac
8e196734f45ae2d7286c17577cf9b3c2 *gd81-09-26 s2 t11 One More Saturday Night.flac
86b06acc7a250598823404b2b651e77e *gd81-09-26 s2 t12 Johnny B. Goode.flac

Comments
Add Comment
Other Sources (comments)
AUD>MC>?>CD; via Scott... (1) Recording by Dan Healy. Set... (1) SBD>Cm>Cass>Dat>CD with aud... (0) flac16; Sick Bits... (0) flac16: AUD: 2x... (0) flac16; Set 2... (2)
Date User Comment
11/27/2017 Wharfrat73 Updated checksuns and info file for the fixed version
11/27/2017 mvernon updated info file (Recorded by ... nad Notes) per instructions from Scott