Browse Collections Artists Sources   Search Dates

Add Show    List Management    Help


Grateful Dead 11/29/81
Civic Arena, Pittsburgh, PA
Comments Add Comment    Source Collectors    Add to Collection    Add to Want List    History
Source # 140034 Other Sources
Entered by Matt Vernon
Checksums ffp , flac-md5
Disc Counts 0 / 0
Media Size
Date Circulated
Date Added
11/27/2017
11/27/2017
Source Summary flac16; Source Info: Frank Streeter's Master FOB Audience Cassette; Sennheiser 421 mics > Sony TC-D5M (TDK MA90); Transfer Info: Cassette Master (Nakamichi CR-7A) > Tascam DA-3000 (DSF 1-bit/5.8 MHz)> KORG AudioGate 4 > Adobe Audition 3.0> TLH flac2496 
  Archive
Source Information - Download Text | Download Zip
Grateful Dead
Civic Center
Pittsburgh, PA
Sunday November 29, 1981

This is a 16/44 fileset. 24 bit to 16 bit via dBpoweramp

Source Info:
Frank Streeter's Master FOB Audience Cassette; Sennheiser 421 mics > Sony TC-D5M (TDK MA90)

Transfer Info:
Cassette Master (Nakamichi CR-7A) > Tascam DA-3000 (DSF 1-bit/5.8 MHz)> KORG AudioGate 4 > Adobe Audition 3.0> TLH flac2496

Notes:
- Thanks to Frank Streeter for the master recording
- Thanks to Charlie Miller for the transfer
- Thanks to the folks responsible for the shnid134752 senn421 source which supplies a 19:09 patch from the end of the Jam coming out of "He's Gone", all of "Drums" and the beginning of "Space"
- Between song transitions smoothed
- Nobody's Fault But Mine, Truckin' and Other One teases in the Jam out of "He's Gone"

Transfer by Charlie Miller
Mastered by Scott Clugston
11/19/17

Set One:
s1 t01. Crowd / Tuning
s1 t02. Shakedown Street ->
s1 t03. Greatest Story Ever Told
s1 t04. Friend Of The Devil
s1 t05. CC Rider
s1 t06. Candyman
s1 t07. Me & My Uncle ->
s1 t08. Big River
s1 t09. Althea ->
s1 t10. Looks Like Rain
s1 t11. Might as Well

Set Two:
s2 t01. Crowd / Tuning
s2 t02. Samson & Delilah
s2 t03. Ship Of Fools
s2 t04. Crowd / Tuning
s2 t05. Lost Sailor ->
s2 t06. Saint Of Circumstance ->
s2 t07. He's Gone ->
         Jam ->
s2 t08. Drums ->
s2 t09. Space ->
s2 t10. Truckin' ->
s2 t11. Black Peter ->
s2 t12. Satisfaction
Encore:
s2 t13. US Blues



    length     expanded size    cdr  WAVE problems  fmt   ratio  filename
     1:16.44       13509932 B   ---   --   ---xx   flac  0.5625  gd81-11-29 s1 t01 Crowd_Tuning.flac
    12:07.18      128285180 B   ---   --   ---xx   flac  0.6119  gd81-11-29 s1 t02 Shakedown Street.flac
     4:05.03       43225100 B   ---   --   ---xx   flac  0.6250  gd81-11-29 s1 t03 Greatest Story Ever Told.flac
     8:33.05       90505004 B   ---   --   ---xx   flac  0.6187  gd81-11-29 s1 t04 Friend Of The Devil.flac
     8:23.43       88830380 B   ---   --   ---xx   flac  0.6201  gd81-11-29 s1 t05 CC Rider.flac
     6:29.60       68760764 B   ---   --   ---xx   flac  0.6223  gd81-11-29 s1 t06 Candyman.flac
     2:55.09       30891212 B   ---   --   ---xx   flac  0.6288  gd81-11-29 s1 t07 Me & My Uncle.flac
     6:07.59       64877612 B   ---   --   ---xx   flac  0.6312  gd81-11-29 s1 t08 Big River.flac
     7:25.05       78509804 B   ---   --   ---xx   flac  0.6118  gd81-11-29 s1 t09 Althea.flac
     8:22.02       88557548 B   ---   --   ---xx   flac  0.6083  gd81-11-29 s1 t10 Looks Like Rain.flac
     4:32.02       47985548 B   ---   --   ---xx   flac  0.6480  gd81-11-29 s1 t11 Might as Well.flac
     1:00.44       10687532 B   ---   --   ---xx   flac  0.5474  gd81-11-29 s2 t01 Crowd_Tuning.flac
     7:10.31       75924956 B   ---   --   ---xx   flac  0.6420  gd81-11-29 s2 t02 Samson & Delilah.flac
     8:44.04       92443052 B   ---   --   ---xx   flac  0.6058  gd81-11-29 s2 t03 Ship Of Fools.flac
     8:26.72       89427788 B   ---   --   ---xx   flac  0.5991  gd81-11-29 s2 t04 Lost Sailor.flac
     6:32.26       69209996 B   ---   --   ---xx   flac  0.6567  gd81-11-29 s2 t05 Saint Of Circumstance.flac
    21:54.02      231794348 B   ---   --   ---xx   flac  0.6026  gd81-11-29 s2 t06 He's Gone.flac
     8:04.26       85438796 B   ---   --   ---xx   flac  0.5403  gd81-11-29 s2 t07 Drums.flac
     5:09.62       54653468 B   ---   --   ---xx   flac  0.5364  gd81-11-29 s2 t08 Space.flac
     8:58.73       95074940 B   ---   --   ---xx   flac  0.6460  gd81-11-29 s2 t09 Truckin'.flac
     8:00.01       84674396 B   ---   --   ---xx   flac  0.6115  gd81-11-29 s2 t10 Black Peter.flac
     6:59.06       73925756 B   ---   --   ---xx   flac  0.6580  gd81-11-29 s2 t11 Satisfaction.flac
     5:22.29       56869052 B   ---   --   ---xx   flac  0.6568  gd81-11-29 s2 t12 US Blues.flac
   166:40.26     1764062164 B                            0.6147  (23 files)

No errors occured.


Show Checksums
ffp
gd81-11-29 s1 t01 Crowd_Tuning.flac:eb54ebcb263faa16b9e8653c6abe9aec
gd81-11-29 s1 t02 Shakedown Street.flac:624a9648843303c53212c10ed8700f2a
gd81-11-29 s1 t03 Greatest Story Ever Told.flac:b2844a08cec3dce8beb7e9578b53f36b
gd81-11-29 s1 t04 Friend Of The Devil.flac:0e2c8af849bbbca1aa87365fb54d4c3f
gd81-11-29 s1 t05 CC Rider.flac:31b25a19a7f9600d89f310cdf0840ded
gd81-11-29 s1 t06 Candyman.flac:2e3f64ccce5a2c44047e86ed6e686767
gd81-11-29 s1 t07 Me & My Uncle.flac:31a2fd02572b179d15cc66287b6daea1
gd81-11-29 s1 t08 Big River.flac:94077d89cb5c808a290935de0aaeef68
gd81-11-29 s1 t09 Althea.flac:0121951b858cc4860f5fdf27b1513cd1
gd81-11-29 s1 t10 Looks Like Rain.flac:a92418e8843c5edc96358a74ab0dcaf4
gd81-11-29 s1 t11 Might as Well.flac:a086da0eae9d6e623dee2bd3da742ad5
gd81-11-29 s2 t01 Crowd_Tuning.flac:4a19785124d5529dd45259961d6988bf
gd81-11-29 s2 t02 Samson & Delilah.flac:6bfd997518683120d556755872b0effc
gd81-11-29 s2 t03 Ship Of Fools.flac:45f8be7f3ce5c4c03b9883a04c7322c3
gd81-11-29 s2 t04 Lost Sailor.flac:5eb716a5299f3c694f243ebb35e7c0de
gd81-11-29 s2 t05 Saint Of Circumstance.flac:e597c5d4bc1a6799d0cfdda14e4aec83
gd81-11-29 s2 t06 He's Gone.flac:1f5cf4bbf4d6ec931377eda8f76867c0
gd81-11-29 s2 t07 Drums.flac:10a17bc7980a5784dff1641a539e3176
gd81-11-29 s2 t08 Space.flac:3e7c9af20c2af01b50643169b8b9c38d
gd81-11-29 s2 t09 Truckin'.flac:16f9b412d54ee25f19fae24bbd4ba965
gd81-11-29 s2 t10 Black Peter.flac:9d4fde3d348a9d071c23bf6f8efc1649
gd81-11-29 s2 t11 Satisfaction.flac:0dc9d89683a8c3ec4668d1abcaf79fa7
gd81-11-29 s2 t12 US Blues.flac:b85845299ade06420bced7c9c94b7ba5
flac-md5
05554e1c437083a62c3da30b515b1333 *gd81-11-29 s1 t01 Crowd_Tuning.flac
4943375f5423606e45d02761f41f4468 *gd81-11-29 s1 t02 Shakedown Street.flac
a43c4ed17da60e31d38ea91c9aebbe0b *gd81-11-29 s1 t03 Greatest Story Ever Told.flac
cd7bdcba2e7415bfc172080f2e249f40 *gd81-11-29 s1 t04 Friend Of The Devil.flac
828543ca429b13ce53759bfba462b091 *gd81-11-29 s1 t05 CC Rider.flac
ab0ea7c938863a4f54ca1d344779f9f6 *gd81-11-29 s1 t06 Candyman.flac
95e0bf5d74d630ed60af55cee9822c1b *gd81-11-29 s1 t07 Me & My Uncle.flac
4a72ad03c3767852660e4accde31adfb *gd81-11-29 s1 t08 Big River.flac
24a96f9bcce51dc3205310fdc26019e2 *gd81-11-29 s1 t09 Althea.flac
12fdb622f38ca59070ced192dbff36cf *gd81-11-29 s1 t10 Looks Like Rain.flac
aea93ba467313048fe2292294e9a263f *gd81-11-29 s1 t11 Might as Well.flac
0e8865a08ad8be78a6fb6e3d562958aa *gd81-11-29 s2 t01 Crowd_Tuning.flac
c72fd479d15967793eb3cf699e3344ba *gd81-11-29 s2 t02 Samson & Delilah.flac
670ebd3eea1e448249b23f7ec07a03b2 *gd81-11-29 s2 t03 Ship Of Fools.flac
246a0084ae45810abbc27e197d2b6fab *gd81-11-29 s2 t04 Lost Sailor.flac
2d1824e246b6887e95650fa923b5895a *gd81-11-29 s2 t05 Saint Of Circumstance.flac
57969b2e9433f4d9159d2e34984ffcc7 *gd81-11-29 s2 t06 He's Gone.flac
56e6e9af34cac4a8484ef30133eea453 *gd81-11-29 s2 t07 Drums.flac
2b0dedcf3875274163a6ebf7cfce28b8 *gd81-11-29 s2 t08 Space.flac
a4c574ffdf180b4fa8cb61218ab7d7ce *gd81-11-29 s2 t09 Truckin'.flac
89866223799004cba1c2a45a0c84aa15 *gd81-11-29 s2 t10 Black Peter.flac
e638ecd238c979ce25f2926bd30e9882 *gd81-11-29 s2 t11 Satisfaction.flac
2726475e79d35b9874554dab24ab1a96 *gd81-11-29 s2 t12 US Blues.flac

Comments
Add Comment
Other Sources (comments)
Senn 421's>MC>DAT>CDR; via... (0) flac16;Recording... (0) flac24; Cassette... (0) flac24; Source Info:... (0)
Date User Comment