Browse Collections Artists Sources   Search Dates

Add Show    List Management    Help


Grateful Dead 11/29/81
Civic Arena, Pittsburgh, PA
Comments Add Comment    Source Collectors    Add to Collection    Add to Want List    History
Source # 140035 Other Sources
Entered by Matt Vernon
Checksums flac-md5 , ffp
Disc Counts 0 / 0
Media Size
Date Circulated
Date Added
11/27/2017
11/27/2017
Source Summary flac24; Source Info: Frank Streeter's Master FOB Audience Cassette; Sennheiser 421 mics > Sony TC-D5M (TDK MA90); Transfer Info: Cassette Master (Nakamichi CR-7A) > Tascam DA-3000 (DSF 1-bit/5.8 MHz)> KORG AudioGate 4 > Adobe Audition 3.0> TLH flac2496 
  Archive
Source Information - Download Text | Download Zip
Grateful Dead
Civic Center
Pittsburgh, PA
Sunday November 29, 1981

Source Info:
Frank Streeter's Master FOB Audience Cassette; Sennheiser 421 mics > Sony TC-D5M (TDK MA90)

Transfer Info:
Cassette Master (Nakamichi CR-7A) > Tascam DA-3000 (DSF 1-bit/5.8 MHz)> KORG AudioGate 4 > Adobe Audition 3.0> TLH flac2496

Notes:
- Thanks to Frank Streeter for the master recording
- Thanks to Charlie Miller for the transfer
- Thanks to the folks responsible for the shnid134752 senn421 source which supplies a 19:09 patch from the end of the Jam coming out of "He's Gone", all of "Drums" and the beginning of "Space"
- Between song transitions smoothed
- Nobody's Fault But Mine, Truckin' and Other One teases in the Jam out of "He's Gone"

Transfer by Charlie Miller
Mastered by Scott Clugston
11/19/17

Set One:
s1 t01. Crowd / Tuning
s1 t02. Shakedown Street ->
s1 t03. Greatest Story Ever Told
s1 t04. Friend Of The Devil
s1 t05. CC Rider
s1 t06. Candyman
s1 t07. Me & My Uncle ->
s1 t08. Big River
s1 t09. Althea ->
s1 t10. Looks Like Rain
s1 t11. Might as Well

Set Two:
s2 t01. Crowd / Tuning
s2 t02. Samson & Delilah
s2 t03. Ship Of Fools
s2 t04. Crowd / Tuning
s2 t05. Lost Sailor ->
s2 t06. Saint Of Circumstance ->
s2 t07. He's Gone ->
         Jam ->
s2 t08. Drums ->
s2 t09. Space ->
s2 t10. Truckin' ->
s2 t11. Black Peter ->
s2 t12. Satisfaction
Encore:
s2 t13. US Blues




    length     expanded size    cdr  WAVE problems  fmt   ratio  filename
     1:16.587      44113964 B   cxx   --   ---xx   flac  0.6560  gd81-11-29 s1 t01 Crowd_Tuning.flac
    12:07.240     418890284 B   cxx   --   ---xx   flac  0.6815  gd81-11-29 s1 t02 Shakedown Street.flac
     4:05.040     141143084 B   cxx   --   ---xx   flac  0.6868  gd81-11-29 s1 t03 Greatest Story Ever Told.flac
     8:33.067     295526444 B   cxx   --   ---xx   flac  0.6902  gd81-11-29 s1 t04 Friend Of The Devil.flac
     8:23.573     290058284 B   cxx   --   ---xx   flac  0.6908  gd81-11-29 s1 t05 CC Rider.flac
     6:29.800     224524844 B   cxx   --   ---xx   flac  0.6914  gd81-11-29 s1 t06 Candyman.flac
     2:55.120     100869164 B   cxx   --   ---xx   flac  0.6932  gd81-11-29 s1 t07 Me & My Uncle.flac
     6:07.787     211845164 B   cxx   --   ---xx   flac  0.6945  gd81-11-29 s1 t08 Big River.flac
     7:25.067     256358444 B   cxx   --   ---xx   flac  0.6875  gd81-11-29 s1 t09 Althea.flac
     8:22.027     289167404 B   cxx   --   ---xx   flac  0.6865  gd81-11-29 s1 t10 Looks Like Rain.flac
     4:32.038     156694100 B   cxx   --   ---xx   flac  0.7007  gd81-11-29 s1 t11 Might as Well.flac
     1:00.587      34897964 B   cxx   --   ---xx   flac  0.6545  gd81-11-29 s2 t01 Crowd_Tuning.flac
     7:10.413     247918124 B   cxx   --   ---xx   flac  0.6873  gd81-11-29 s2 t02 Samson & Delilah.flac
     8:44.053     301854764 B   cxx   --   ---xx   flac  0.6738  gd81-11-29 s2 t03 Ship Of Fools.flac
     8:26.960     292009004 B   cxx   --   ---xx   flac  0.6713  gd81-11-29 s2 t04 Lost Sailor.flac
     6:32.347     225991724 B   cxx   --   ---xx   flac  0.6915  gd81-11-29 s2 t05 Saint Of Circumstance.flac
    21:54.027     756879404 B   cxx   --   ---xx   flac  0.6646  gd81-11-29 s2 t06 He's Gone.flac
     8:04.347     278983724 B   cxx   --   ---xx   flac  0.6376  gd81-11-29 s2 t07 Drums.flac
     5:09.827     178460204 B   cxx   --   ---xx   flac  0.6506  gd81-11-29 s2 t08 Space.flac
     8:58.973     310448684 B   cxx   --   ---xx   flac  0.6878  gd81-11-29 s2 t09 Truckin'.flac
     8:00.013     276487724 B   cxx   --   ---xx   flac  0.6751  gd81-11-29 s2 t10 Black Peter.flac
     6:59.080     241390124 B   cxx   --   ---xx   flac  0.6927  gd81-11-29 s2 t11 Satisfaction.flac
     5:22.373     185687084 B   cxx   --   ---xx   flac  0.6907  gd81-11-29 s2 t12 US Blues.flac
   166:40.345    5760199708 B                            0.6795  (23 files)

No errors occured.


Show Checksums
flac-md5
0c503861c595ef72d9b3d9af1a7e3378 *gd81-11-29 s1 t01 Crowd_Tuning.flac
d891f67df300d74d0361d6f620bf28be *gd81-11-29 s1 t02 Shakedown Street.flac
57c227fee2e108aa3897ad788728384d *gd81-11-29 s1 t03 Greatest Story Ever Told.flac
1e4447978849b9a17edd309dba1994e2 *gd81-11-29 s1 t04 Friend Of The Devil.flac
304d3c1797428dcf591c3aafce1306b9 *gd81-11-29 s1 t05 CC Rider.flac
45a97b3618da1320c4e917147e6cbd4a *gd81-11-29 s1 t06 Candyman.flac
0e5566c65c8440685aecf1c6e8886689 *gd81-11-29 s1 t07 Me & My Uncle.flac
da85a48084f4b8b097533c6082d90e67 *gd81-11-29 s1 t08 Big River.flac
20a0287429cba6acf2b6885261126c7d *gd81-11-29 s1 t09 Althea.flac
53f00dc90d3b2a31cbdf473a0eaf33db *gd81-11-29 s1 t10 Looks Like Rain.flac
7565ac4f063b05733cd764830d6503df *gd81-11-29 s1 t11 Might as Well.flac
34b0d998e4455859f843fcec0afacac6 *gd81-11-29 s2 t01 Crowd_Tuning.flac
a4754915accdd17b026bfe7a21c9dccf *gd81-11-29 s2 t02 Samson & Delilah.flac
38e65aa9872a88cdd1b13cec0e7ca6f1 *gd81-11-29 s2 t03 Ship Of Fools.flac
0d0404d3b3c87c2f0c04c4efc6d6d728 *gd81-11-29 s2 t04 Lost Sailor.flac
40744e26dbb32ea2989fbaac442c35d8 *gd81-11-29 s2 t05 Saint Of Circumstance.flac
42c080dbc90a866c36cd91e34656c130 *gd81-11-29 s2 t06 He's Gone.flac
d100f435c2c1f88131178ec699adfce9 *gd81-11-29 s2 t07 Drums.flac
542fddf8172b9987cf38f634c4428586 *gd81-11-29 s2 t08 Space.flac
874a113743eb2fae7d17422fec966bba *gd81-11-29 s2 t09 Truckin'.flac
b4a1c0b825bbb41eee00fc18cab9467f *gd81-11-29 s2 t10 Black Peter.flac
b51290ee5da962347c680d68a2277e0a *gd81-11-29 s2 t11 Satisfaction.flac
cd0ec190a51ec8bea7ea5fa26af6a803 *gd81-11-29 s2 t12 US Blues.flac
ffp
gd81-11-29 s1 t01 Crowd_Tuning.flac:62c8eed569ba919fccfda94d0a07bd48
gd81-11-29 s1 t02 Shakedown Street.flac:1db3cc078a92572f7ccb9d61332ee445
gd81-11-29 s1 t03 Greatest Story Ever Told.flac:71cffef0cf6b0f8e769fa5b1a134a818
gd81-11-29 s1 t04 Friend Of The Devil.flac:e6adcf598793fee8c49e7ededb652d4d
gd81-11-29 s1 t05 CC Rider.flac:6c56826d93fe3d2a167a3f0f71b063bf
gd81-11-29 s1 t06 Candyman.flac:fcdcef1da1325be41e669e149df498a6
gd81-11-29 s1 t07 Me & My Uncle.flac:7e55cfe1c1713dbac23767db702570fc
gd81-11-29 s1 t08 Big River.flac:66e30c0cf465d866be5143352f062c4d
gd81-11-29 s1 t09 Althea.flac:9581c267364f7564dc5f4f9289493922
gd81-11-29 s1 t10 Looks Like Rain.flac:667aa355ae794062f9cef660eb00bba4
gd81-11-29 s1 t11 Might as Well.flac:9f5621719d6bed40b1cf7e822aa6a1a2
gd81-11-29 s2 t01 Crowd_Tuning.flac:f97dfd7b9c07ad3a24572237195f15e8
gd81-11-29 s2 t02 Samson & Delilah.flac:6e545e19bc3c5d21b0f5274cd5f26db4
gd81-11-29 s2 t03 Ship Of Fools.flac:55ee893b3d5c6460a0e7c5d511feb4ea
gd81-11-29 s2 t04 Lost Sailor.flac:eab17303a41cec10302badf8e8c727f6
gd81-11-29 s2 t05 Saint Of Circumstance.flac:a2fd17d9bf2a55bc9e33500ca88b96bf
gd81-11-29 s2 t06 He's Gone.flac:f9217b27dd82d316ca0ecfb3b3aa9c60
gd81-11-29 s2 t07 Drums.flac:18239b38cc90cf321151f6617d2dbc85
gd81-11-29 s2 t08 Space.flac:b64e17d802b6c3456b6b80bd8518b8c9
gd81-11-29 s2 t09 Truckin'.flac:d5725b1e6aebd526043145784083f01c
gd81-11-29 s2 t10 Black Peter.flac:236f9fb7e34cb69d848d4afa84e7137c
gd81-11-29 s2 t11 Satisfaction.flac:ea782e6bdb57aaef958ae2e118abbb66
gd81-11-29 s2 t12 US Blues.flac:a5d12834411fe71d0c8d1cada9680d1f

Comments
Add Comment
Other Sources (comments)
Senn 421's>MC>DAT>CDR; via... (0) flac16;Recording... (0) flac24; Cassette... (0) flac16; Source Info:... (0)
Date User Comment