Browse Collections Artists Sources   Search Dates

Add Show    List Management    Help


Grateful Dead 04/12/83
Broome County Arena, Binghamton, NY
Comments Add Comment    Source Collectors    Add to Collection    Add to Want List    History
Source # 140047 Other Sources
Entered by Matt Vernon
Checksums ffp , flac-md5
Disc Counts 0 / 0
Media Size
Date Circulated
Date Added
11/30/2017
11/30/2017
Source Summary flac16; Set 2 Recording Info: Master Soundboard PCM > PCM; Transfer Info: PCM (Sony SLV-M20HF)> Sony PCM 601ESD> Behringer Ultramatch Pro> Tascam DA-3000 (16-bit/44.1k)> Adobe Audition 3.0> TLH flac16; Mastered by Scott Clugston 
  Archive
Source Information - Download Text | Download Zip
Grateful Dead
Broome County Arena
Binghamton, NY
Tuesday April 12, 1983

Recording Info:
Master Soundboard PCM > PCM

Transfer Info:
PCM (Sony SLV-M20HF)> Sony PCM 601ESD> Behringer Ultramatch Pro> Tascam DA-3000 (16-bit/44.1k)> Adobe Audition 3.0> TLH flac16

Notes:
- Thanks to David Gans for the PCM clone
- Thanks to Charlie Miller for the transfer
- PCM clone patched out of a cassette deck
- Thanks to the folks responsible for the shnid93961 sennheiser 421 source for a 0:21 patch at the beginning of "Drums"
- Other One space included in "The Other One"
- All copies in general circulation emanate from this PCM clone


Transfer by Charlie Miller
Mastered by Scott Clugston
11/25/17

Set 2:
s2 t01 - Help On The Way ->
s2 t02 - Slipknot! ->
s2 t03 - Franklin’s Tower
s2 t04 - Lost Sailor ->
s2 t05 - Saint of Circumstance
s2 t06 - Terrapin Station ->
s2 t07 - Drums ->
s2 t08 - Space ->
s2 t09 - The Other One ->
s2 t10 - Wharf Rat ->
s2 t11 - Not Fade Away ->
s2 t12 - Not Fade Away audience chant ->
Encore:
s2 t13 - Not Fade Away ->
s2 t14 - It’s All Over Now Baby Blue ->
          Not Fade Away



    length     expanded size    cdr  WAVE problems  fmt   ratio  filename
     4:27.22       47150588 B   ---   --   ---xx   flac  0.6433  gd83-04-12 s2 t01 Help On The Way.flac
     6:25.65       68066924 B   ---   --   ---xx   flac  0.6735  gd83-04-12 s2 t02 Slipknot!.flac
    11:29.41      121636076 B   ---   --   ---xx   flac  0.6919  gd83-04-12 s2 t03 Franklin's Tower.flac
     7:14.52       76679948 B   ---   --   ---xx   flac  0.6137  gd83-04-12 s2 t04 Lost Sailor.flac
     7:34.28       80151500 B   ---   --   ---xx   flac  0.6734  gd83-04-12 s2 t05 Saint Of Circumstance.flac
    11:11.43      118465580 B   ---   --   ---xx   flac  0.6411  gd83-04-12 s2 t06 Terrapin Station.flac
     9:19.71       98774636 B   ---   --   ---xx   flac  0.4966  gd83-04-12 s2 t07 Drums.flac
     7:51.08       83103260 B   ---   --   ---xx   flac  0.4840  gd83-04-12 s2 t08 Space.flac
     9:41.55      102617804 B   ---   --   ---xx   flac  0.6486  gd83-04-12 s2 t09 The Other One.flac
     8:52.68       94004780 B   ---   --   ---xx   flac  0.6135  gd83-04-12 s2 t10 Wharf Rat.flac
     7:05.07       74986508 B   ---   --   ---xx   flac  0.6423  gd83-04-12 s2 t11 Not Fade Away.flac
     1:33.67       16562828 B   ---   --   ---xx   flac  0.4747  gd83-04-12 s2 t12 Not Fade Away Chant.flac
     1:37.34       17190812 B   ---   --   ---xx   flac  0.5157  gd83-04-12 s2 t13 Not Fade Away.flac
     7:27.54       78977852 B   ---   --   ---xx   flac  0.6439  gd83-04-12 s2 t14 It's All Over Now, Baby Blue.flac
   101:53.15     1078369096 B                            0.6181  (14 files)

No errors occured.


Show Checksums
ffp
gd83-04-12 s2 t01 Help On The Way.flac:b0defde5efb7fcdd1429e860ae41e359
gd83-04-12 s2 t02 Slipknot!.flac:1d577db502a9b89209b22d820c2a0b69
gd83-04-12 s2 t03 Franklin's Tower.flac:76138ec12f2d02e96eae098d802de4cc
gd83-04-12 s2 t04 Lost Sailor.flac:6c11000c70ab50a31e51187dfca4270a
gd83-04-12 s2 t05 Saint Of Circumstance.flac:5620b9c49cbcc067d910a9efc755933a
gd83-04-12 s2 t06 Terrapin Station.flac:e66b7053f03c8e431b7e896949c7cad8
gd83-04-12 s2 t07 Drums.flac:36f56bfc577cf954cc37d13d3508fb6a
gd83-04-12 s2 t08 Space.flac:f2e40e4efad615be9e399f30b81ae414
gd83-04-12 s2 t09 The Other One.flac:40214ef920bde2f8afb5db993e15bc31
gd83-04-12 s2 t10 Wharf Rat.flac:b57961ca911abc17ce812af1c2655b14
gd83-04-12 s2 t11 Not Fade Away.flac:3e1aeeb1badc07a5dcdf4f4fbc3427ab
gd83-04-12 s2 t12 Not Fade Away Chant.flac:65523683e84cd2867c1577a44b6c0903
gd83-04-12 s2 t13 Not Fade Away.flac:ae0e8e1337c79f98fa45a0a164168132
gd83-04-12 s2 t14 It's All Over Now, Baby Blue.flac:ff39da3df8fac8cea081d98cfd471245
flac-md5
c36625398066098d2f4bce591b3739d9 *gd83-04-12 s2 t01 Help On The Way.flac
77c6146c818378e2c394ad8e4ccbc350 *gd83-04-12 s2 t02 Slipknot!.flac
8dd1ff490a9fc4bf18ca0c53458e99f0 *gd83-04-12 s2 t03 Franklin's Tower.flac
bf3e45f05cab9917313c4f965fff704b *gd83-04-12 s2 t04 Lost Sailor.flac
ef9359a473bf0c04a06b65b2237af74d *gd83-04-12 s2 t05 Saint Of Circumstance.flac
d4d70870afc314e283a6a40e7eb76db3 *gd83-04-12 s2 t06 Terrapin Station.flac
6aa8c01f92969ff0a099a09f0f5009f4 *gd83-04-12 s2 t07 Drums.flac
feb740ba53f0f7d2e1d06eff5ac94588 *gd83-04-12 s2 t08 Space.flac
3d12fad809abba77d778d20514b22019 *gd83-04-12 s2 t09 The Other One.flac
e2d909c8ab2afd2ae04a2f6dec180aa9 *gd83-04-12 s2 t10 Wharf Rat.flac
ee8935ae269ba9be6b917347667f7a68 *gd83-04-12 s2 t11 Not Fade Away.flac
a8aa4108ce4854f0f792fd088abed863 *gd83-04-12 s2 t12 Not Fade Away Chant.flac
9af0239f9534e4c6176ec6288790be65 *gd83-04-12 s2 t13 Not Fade Away.flac
8d52625255f3ed9e8e7404352e473510 *gd83-04-12 s2 t14 It's All Over Now, Baby Blue.flac

Comments
Add Comment
Other Sources (comments)
2nd set only;... (1) Jim Wise recording, FOB... (0) SBD>PCM>DAT>CDR; with aud... (1) Primary source: SBD >... (2) flac16; Recording... (0) flac16; MAC; (FOB) 2... (2) flac24; nakamichi... (0) flac16; 3 Source... (0) flac16; AUD:... (0) flac16; nakamichi... (0) flac16/48kHz;... (1) flac16; aud cassette... (0) flac24; aud cassette... (0) flac16/44.1 ... (0) flac24/48 ... (0)
Date User Comment