Browse Collections Artists Sources   Search Dates

Add Show    List Management    Help


Grateful Dead 04/15/83
Community War Memorial Auditorium, Rochester, NY
Comments Add Comment    Source Collectors    Add to Collection    Add to Want List    History
Source # 140059 Other Sources
Entered by Matt Vernon
Checksums ffp , flac-md5
Disc Counts 0 / 0
Media Size
Date Circulated
Date Added
12/01/2017
12/01/2017
Source Summary flac16; Set 2 Recording Info: Master Soundboard PCM > PCM; Transfer Info: PCM (Sony SLV-M20HF)> Sony PCM 601ESD> Behringer Ultramatch Pro> Sound Devices 744T (16-bit/44.1k)> Adobe Audition 3.0> TLH flac16; Mastered by Scott Clugston 
  Archive
Source Information - Download Text | Download Zip
Grateful Dead
War Memorial Auditorium
Rochester, NY
Friday April 15, 1983

Recording Info:
Master Soundboard PCM > PCM

Transfer Info:
PCM (Sony SLV-M20HF)> Sony PCM 601ESD> Behringer Ultramatch Pro> Sound Devices 744T (16-bit/44.1k)> Adobe Audition 3.0> TLH flac16

Notes:
- Thanks to David Gans for the PCM clone
- Thanks to Charlie Miller for the transfer
- Thanks to the folks responsible for shnid9974 sennheiser 421 source which supplies the crowd/tunings and first few notes of "Maybe You Know" (0:12 in total)
- Thanks to Charlie Miller for the shnid94282 Audio Technica source that supplies some crowd and the first 0:04 of "It's All Over Now, Baby Blue"
- Jam with Bob and drummers before "Drums"
- All copies in general circulation emanate from this PCM clone

Transfer by Charlie Miller
Mastered by Scott Clugston
11/22/17

Set Two:
s2 t01 - Tuning
s2 t02 - Feel Like A Stranger
s2 t03 - Samson & Delilah
s2 t04 - Ship Of Fools
s2 t05 - Maybe You Know
s2 t06 - He's Gone ->
s2 t07 - Bob Star ->
s2 t08 - Drums ->
s2 t09 - Space ->
s2 t10 - Throwing Stones ->
s2 t11 - Not Fade Away ->
s2 t12 - Going Down The Road Feeling Bad ->
s2 t13 - Around And Around ->
s2 t14 - Johnny B. Goode
Encore:
s2 t15 - It's All Over Now, Baby Blue



     length     expanded size    cdr  WAVE problems  fmt   ratio  filename
     1:41.33       17894060 B   ---   --   ---xx   flac  0.5126  gd83-04-15 s2 t01 Tuning.flac
     9:33.03      101084300 B   ---   --   ---xx   flac  0.6623  gd83-04-15 s2 t02 Feel Like A Stranger.flac
     9:32.24      100957292 B   ---   --   ---xx   flac  0.6398  gd83-04-15 s2 t03 Samson & Delilah.flac
     7:55.09       83811212 B   ---   --   ---xx   flac  0.5976  gd83-04-15 s2 t04 Ship Of Fools.flac
     5:03.49       53564492 B   ---   --   ---xx   flac  0.6946  gd83-04-15 s2 t05 Maybe You Know.flac
    12:40.33      134141660 B   ---   --   ---xx   flac  0.5942  gd83-04-15 s2 t06 He's Gone.flac
     6:34.27       69565148 B   ---   --   ---xx   flac  0.6209  gd83-04-15 s2 t07 Bob Star.flac
     6:45.07       71458508 B   ---   --   ---xx   flac  0.4504  gd83-04-15 s2 t08 Drums.flac
    10:37.72      112536188 B   ---   --   ---xx   flac  0.4934  gd83-04-15 s2 t09 Space.flac
     9:46.10      103393964 B   ---   --   ---xx   flac  0.6414  gd83-04-15 s2 t10 Throwing Stones.flac
     6:05.65       64538924 B   ---   --   ---xx   flac  0.6561  gd83-04-15 s2 t11 Not Fade Away.flac
     6:49.41       72244076 B   ---   --   ---xx   flac  0.6831  gd83-04-15 s2 t12 Going Down The Road Feeling Bad.flac
     3:42.31       39233756 B   ---   --   ---xx   flac  0.6581  gd83-04-15 s2 t13 Around & Around.flac
     4:22.66       46372076 B   ---   --   ---xx   flac  0.6874  gd83-04-15 s2 t14 Johnny B. Goode.flac
     7:11.31       76101356 B   ---   --   ---xx   flac  0.6269  gd83-04-15 s2 t15 It's All Over Now, Baby Blue.flac
   108:21.51     1146897012 B                            0.6121  (15 files)

No errors occured.


Show Checksums
ffp
gd83-04-15 s2 t01 Tuning.flac:4e4bf9bcc0901befa6fbeaecc9868ad4
gd83-04-15 s2 t02 Feel Like A Stranger.flac:0de792f6602ff74425486cb2c49cd803
gd83-04-15 s2 t03 Samson & Delilah.flac:6e7b729e1d1bc297705b5c2f36a48a08
gd83-04-15 s2 t04 Ship Of Fools.flac:378c6d5b4b07c43f1ee76433bc0a8245
gd83-04-15 s2 t05 Maybe You Know.flac:f579ae361c8f8753ece51631af6998bc
gd83-04-15 s2 t06 He's Gone.flac:444cc3e18de4da1e1519e90d7e5ad0a0
gd83-04-15 s2 t07 Bob Star.flac:d4f25970611bf02797200ab97c999929
gd83-04-15 s2 t08 Drums.flac:3dc64b1c546dd62a2ad8b401a445bd27
gd83-04-15 s2 t09 Space.flac:38d5a3593ef4482e41df0f70010899e9
gd83-04-15 s2 t10 Throwing Stones.flac:21392cef0c4e985bd2c9cd37a53cd9ef
gd83-04-15 s2 t11 Not Fade Away.flac:aea1a79922fa42a73bf3492e0851248a
gd83-04-15 s2 t12 Going Down The Road Feeling Bad.flac:b611654d8afe65a71c0fc5a33e0b54bd
gd83-04-15 s2 t13 Around & Around.flac:af46282f99ee1f9178d897ec4096697d
gd83-04-15 s2 t14 Johnny B. Goode.flac:80a35c663a0c2a73d94e66f6d6c4fcaf
gd83-04-15 s2 t15 It's All Over Now, Baby Blue.flac:ff8862b17e8c0a549e74f3c12867ab55
flac-md5
3bfc6133e9ddab37dd096f8f2193a57f *gd83-04-15 s2 t01 Tuning.flac
73af7d46d489170478fa7b104ebd65d1 *gd83-04-15 s2 t02 Feel Like A Stranger.flac
4240764876bee5aeec12dbfc02be7166 *gd83-04-15 s2 t03 Samson & Delilah.flac
599dca27c66beb8c001cf98fff32a0e1 *gd83-04-15 s2 t04 Ship Of Fools.flac
ee51a679a429da106cc806c184688891 *gd83-04-15 s2 t05 Maybe You Know.flac
fce441578e000e191cd46ebd23d4c7af *gd83-04-15 s2 t06 He's Gone.flac
aef51c1acb83c793509ede6564362363 *gd83-04-15 s2 t07 Bob Star.flac
27c6d0c78b8275e1990840ebca2b21b2 *gd83-04-15 s2 t08 Drums.flac
80d2544fd8c11712adbf2276502058dc *gd83-04-15 s2 t09 Space.flac
7e2172723541a294eb082ca221a6074c *gd83-04-15 s2 t10 Throwing Stones.flac
9098bb04787629c4b04e5c8724008a5b *gd83-04-15 s2 t11 Not Fade Away.flac
d99778a0751eefd18e06dcb4975a24af *gd83-04-15 s2 t12 Going Down The Road Feeling Bad.flac
4fd665754ddd225838f46c4d99f24782 *gd83-04-15 s2 t13 Around & Around.flac
2d7a554b04033592cf8b2d507887f621 *gd83-04-15 s2 t14 Johnny B. Goode.flac
12702002776dee312d62fd1d2743941e *gd83-04-15 s2 t15 It's All Over Now, Baby Blue.flac

Comments
Add Comment
Other Sources (comments)
Senn. 421?s > MC>DAT>CD;... (0) 2nd set; SBD>PCM>DAT>Sonic... (1) (FOB) Audio Technica Mics... (0) Recording Info: Set 1: SBD... (0) flac16; Recording... (0) flac24; Recording... (0) flac16;... (0) flac16;Recording... (0) flac24; Recording... (0) flac16; AUD:... (0) flac16; 2 source... (0) flac16; aud cassette... (0) flac24; aud cassette... (0) flac24; source:... (0) flac16/44.1 ... (0) flac24/48 ... (0) flac16/44.1 ... (0) flac24/48 ... (0) flac24; Recording... (0)
Date User Comment