Browse Collections Artists Sources   Search Dates

Add Show    List Management    Help


Grateful Dead 03/16/94
Rosemont Horizon, Rosemont, IL
Comments Add Comment    Source Collectors    Add to Collection    Add to Want List    History
Source # 140065 Other Sources
Entered by Matt Vernon
Checksums ffp , flac-md5
Disc Counts 0 / 0
Media Size
Date Circulated
Date Added

12/01/2017
Source Summary flac16/44 Source Info: FOB Schoeps MK4-> Reutelhuber P/S-> DAT Transfer Info: Dat (Panasonic SV-3700) -> Marantz CDR-615 -> CD (Late 90's) Extract Wav-> Flac Level 8-> Tagged (16/44.1) Transfers by Pete Ebel 
  Archive
Source Information - Download Text | Download Zip
Grateful Dead
Rosemont Horizon - Rosemont - IL
March 16, 1994

Source Info:
FOB Schoeps MK4-> Reutelhuber P/S-> DAT

Transfer Info:
Dat (Panasonic SV-3700) -> Marantz CDR-615 -> CD (Late 90's)
Extract Wav-> Flac Level 8-> Tagged (16/44.1)


Transfers by Pete Ebel
November 7, 2017


Notes:
Set #2 is Seemless
Left Channel Cable Issues couple times during show
FOB Tapers get asked to leave seats after Jack Straw


Set #1:
01. Jack Straw
02. Friend Of The Devil
03. Minglewood Blues
04. So Many Roads
05. Tom Thumb Blues
06. Beat It On Down The Line
07. High Time
08. Easy Answers
09. Don't Ease Me In

Set #2:
10. Scarlet Begonias
11. Fire On The Mountain
12. Look's Like Rain
13. Long Way To Go Home
14. Dark Star
15. Drumz
16. Space
17. I Need A Miracle
18. Standing On The Moon
19. Sugar Magnolia

Encore:
20. I Fought The Law




SHNTOOL OUTPUT:
    length     expanded size    cdr  WAVE problems  fmt   ratio  filename
     7:54.27       83677148 B   ---   --   ---xx   flac  0.5411  01 Jack Straw.flac
     8:25.17       89122028 B   ---   --   ---xx   flac  0.5336  02 Friend Of The Devil.flac
     9:01.30       95503004 B   ---   --   ---xx   flac  0.5492  03 Minglewood Blues.flac
     7:24.63       78469820 B   ---   --   ---xx   flac  0.5182  04 So Many Roads.flac
     7:00.64       74238572 B   ---   --   ---xx   flac  0.5437  05 Tom Thumb Blues.flac
     3:10.46       33624236 B   ---   --   ---xx   flac  0.5824  06 Beat It On Down The Line.flac
     6:57.01       73561196 B   ---   --   ---xx   flac  0.4767  07 High Time.flac
     6:02.27       63920348 B   ---   --   ---xx   flac  0.5793  08 Easy Answers.flac
     3:27.66       36670076 B   ---   --   ---xx   flac  0.5396  09 Don't Ease Me In.flac
    10:31.43      111409580 B   ---   --   ---xx   flac  0.5729  10 Scarlet Begonias.flac
    12:15.73      129825740 B   ---   --   ---xx   flac  0.5727  11 Fire On The Mountain.flac
     8:12.51       86908796 B   ---   --   ---xx   flac  0.5661  12 Look's Like Rain.flac
     6:46.70       71783084 B   ---   --   ---xx   flac  0.5846  13 Long Way To Go Home.flac
    10:37.11      112392716 B   ---   --   ---xx   flac  0.5513  14 Dark Star.flac
    13:09.09      139200812 B   ---   --   ---xx   flac  0.4820  15 Drumz.flac
    11:17.66      119578076 B   ---   --   ---xx   flac  0.4201  16 Space.flac
     5:13.09       55234412 B   ---   --   ---xx   flac  0.5933  17 I Need A Miracle.flac
     8:54.01       94199996 B   ---   --   ---xx   flac  0.5594  18 Standing On The Moon.flac
    11:57.49      126594092 B   ---   --   ---xx   flac  0.5906  19 Sugar Magnolia.flac
     4:32.25       48039644 B   ---   --   ---xx   flac  0.5679  20 I Fought The Law.flac
   162:52.73     1723953376 B                            0.5417  (20 files)


Show Checksums
ffp
01 Jack Straw.flac:6c74f16a2183bf165d9132f41628e7a3
02 Friend Of The Devil.flac:34b9d2b2f6ecc1b7f265fb347a1ca8a7
03 Minglewood Blues.flac:13f1b566761b158084696c10e6596593
04 So Many Roads.flac:f4e871f23755484cae14f6029351a5b9
05 Tom Thumb Blues.flac:ea50579c13f1d671a8acb641a6c4841c
06 Beat It On Down The Line.flac:b83beb6d75b944867fb79f6cd312b73a
07 High Time.flac:eac178eda005c52b58450953c078c726
08 Easy Answers.flac:128573dcbb2d50da706bcf8ad6947a73
09 Don't Ease Me In.flac:e028b5d9415eea44c2edebe966f52337
10 Scarlet Begonias.flac:8e3e4c94d497106aab888a3888da4ced
11 Fire On The Mountain.flac:cd0c546804017dc2655bfcb7d20951ed
12 Look's Like Rain.flac:e353796721f6eec19351b33bc1705e18
13 Long Way To Go Home.flac:d19585a85b8392c43da02dd08745f89b
14 Dark Star.flac:b6a6754d9277f3aaa315b5987b2d60cf
15 Drumz.flac:ef47a80394a5d31d6ae9f6ea09959592
16 Space.flac:08d6a81aa9d8ebb75a5429b1d5d75897
17 I Need A Miracle.flac:2b8f1300a12dba9724991a942bcf7818
18 Standing On The Moon.flac:e80aa6147985b6ac11688bc7131db4db
19 Sugar Magnolia.flac:515180ee382cfc134b8a1e7bdc82591a
20 I Fought The Law.flac:b5652412ae84bf8c07d4a3bfd5f14d84
flac-md5
15f467bce82fdcbe5f4b3addcc2bc84b *01 Jack Straw.flac
3dc259ad9308f2e604f41c6f60bfbe24 *02 Friend Of The Devil.flac
6c7faa99031d996baf84671d8de0a28c *03 Minglewood Blues.flac
a829c99699efd64815b330d2f150ccb2 *04 So Many Roads.flac
12245b75122b2793cbac00cd145c6c62 *05 Tom Thumb Blues.flac
f387c53fe804935d7f49cd51fac87857 *06 Beat It On Down The Line.flac
800a21f12770c4219c63711fc8515321 *07 High Time.flac
9805407b77f79512e6a132077dc6700b *08 Easy Answers.flac
b055b1108aa6906518a2beac6e110bd8 *09 Don't Ease Me In.flac
59ed6bbf4347398a198974fc568b8482 *10 Scarlet Begonias.flac
28bd33a1bb188c36be126447b0b4aca7 *11 Fire On The Mountain.flac
9bd30ec9eed892e010c76bff07a5c4a0 *12 Look's Like Rain.flac
7e9db7553903a2dd9026b1b1f052df30 *13 Long Way To Go Home.flac
fd791e64ba14f1f463d1c2f1d354713c *14 Dark Star.flac
826a7c04600c0cd22982131133dbc1c0 *15 Drumz.flac
47fe6f9f9d9bf73613912648d89076f4 *16 Space.flac
da432e7ad5c504bede16a04b0f790798 *17 I Need A Miracle.flac
df8fdff014fc5a94ddf0c1adb2e76d91 *18 Standing On The Moon.flac
0de2f30f2a4c6fde88523c5b80cc7b8c *19 Sugar Magnolia.flac
7e99c28b38e152e441751c6233be8060 *20 I Fought The Law.flac

Comments
Add Comment
Other Sources (comments)
DSBD->DAT-> DAP-1> Digital... (3) SBD> Dat> Sonic Solutions>... (2) flac16; Recording... (0)
Date User Comment