Browse Collections Artists Sources   Search Dates

Add Show    List Management    Help


Grateful Dead 03/17/94
Rosemont Horizon, Rosemont, IL
Comments Add Comment    Source Collectors    Add to Collection    Add to Want List    History
Source # 140066 Other Sources
Entered by Matt Vernon
Checksums ffp , flac-md5
Disc Counts 0 / 0
Media Size
Date Circulated
Date Added

12/01/2017
Source Summary flac16/44 Source Info: TS AKG 460->DAT Transfer Info: DAT (Panasonic SV-3700) -> Coxial SPDIF-> Marantz PMD 661 MKII (Solid State Recorder)-> SD Card-> Wav-> Flac Level 8-> Tagged (16/48) Transfers by Pete Ebel 
  Archive
Source Information - Download Text | Download Zip
Grateful Dead
Rosemont Horizon - Rosemont - IL
March 17, 1994

Source Info:
TS AKG 460->DAT

Transfer Info:
DAT (Panasonic SV-3700) -> Coxial SPDIF-> Marantz PMD 661 MKII (Solid State Recorder)->
SD Card-> Wav-> Flac Level 8-> Tagged (16/48)


Transfers by Pete Ebel
November 7, 2017


Notes:
Set #2 is Seemless
Transfer From DAT -> Wav (48k)

Set #1:
01. Touch Of Grey
02. Wang Dang Doodle
03. Althea
04. Me & My Uncle
05. Mexicali Blues
06. Lazy River Road
07. Eternity

Set #2:
08. Tuning
09. Box Of Rain
10. Iko-Iko
11. Playing In The Band
12. Uncle John's Band
13. Drumz
14. Space
15. The Wheel
16. All A Long The Watchtower
17. Morning Dew

Encore:
18. Rain




SHNTOOL OUTPUT:
    length     expanded size    cdr  WAVE problems  fmt   ratio  filename
     7:03.947      81397804 B   cxx   --   ---xx   flac  0.5645  01 Touch Of Grey.flac
     6:43.293      77432364 B   cxx   --   ---xx   flac  0.5606  02 Wang Dang Doodle.flac
     9:05.680     104770604 B   cxx   --   ---xx   flac  0.5612  03 Althea.flac
     2:47.280      32117804 B   cxx   --   ---xx   flac  0.5904  04 Me & My Uncle.flac
     5:22.853      61987884 B   cxx   --   ---xx   flac  0.5975  05 Mexicali Blues.flac
     7:06.867      81958444 B   cxx   --   ---xx   flac  0.5837  06 Lazy River Road.flac
     9:47.021     112708016 B   cxx   --   ---xx   flac  0.6099  07 Eternity.flac
     4:30.620      51959168 B   cxx   --   ---xx   flac  0.4410  08 Tuning.flac
     5:06.200      58790444 B   cxx   --   ---xx   flac  0.5242  09 Box Of Rain.flac
     9:38.160     111006764 B   cxx   --   ---xx   flac  0.5354  10 Iko-Iko.flac
     9:10.707     105735724 B   cxx   --   ---xx   flac  0.5227  11 Playing In The Band.flac
    12:16.267     141363244 B   cxx   --   ---xx   flac  0.5242  12 Uncle John's Band.flac
    12:40.160     145950764 B   cxx   --   ---xx   flac  0.4765  13 Drumz.flac
    10:23.307     119674924 B   cxx   --   ---xx   flac  0.4073  14 Space.flac
     4:45.573      54830124 B   cxx   --   ---xx   flac  0.5154  15 The Wheel.flac
     7:04.467      81497644 B   cxx   --   ---xx   flac  0.5238  16 All A Long The Watchtower.flac
    15:37.320     179965484 B   cxx   --   ---xx   flac  0.4926  17 Morning Dew.flac
     5:55.200      68198348 B   cxx   --   ---xx   flac  0.5382  18 Rain.flac
   145:04.921    1671345552 B                            0.5252  (18 files)


Show Checksums
ffp
01 Touch Of Grey.flac:2569325cb8a0cc2d0fc3693cd4f47bcd
02 Wang Dang Doodle.flac:9784d8891017cb7c884514844c401f26
03 Althea.flac:6d7c480d0bca257e031b90009610ba9e
04 Me & My Uncle.flac:f2acc3239b080bfce12d34483e01606e
05 Mexicali Blues.flac:8dce2ef1341c270b22cde57dbc0a107d
06 Lazy River Road.flac:7265749c9ed1d0a4d19cc1799b5f82eb
07 Eternity.flac:90b82ce48ff767442a50726513065133
08 Tuning.flac:bbae73f5f130b082e510da911c115b99
09 Box Of Rain.flac:2b3bf96fe9e38fa65601c4a4291fe27d
10 Iko-Iko.flac:f907cc425a30557abe9a39abea6580f6
11 Playing In The Band.flac:0f82cb9702f2ceaede2b98d4cc7561dc
12 Uncle John's Band.flac:5643f1f2f30726ea7ca388813143d935
13 Drumz.flac:36b0f0065d51155f2c6e2ea3044f1b75
14 Space.flac:ddf881d1e84104a80cb2b71d9b94ef34
15 The Wheel.flac:74c3cdd261618f91c42ea183cc496626
16 All A Long The Watchtower.flac:10699bcfec85c30413dbc7ede838511f
17 Morning Dew.flac:b4c5b5b6ee63be4a1484c21a64e792bd
18 Rain.flac:8bfce47f179411156f6110d50c6b22ee
flac-md5
98b99932672a653af904e948e0f5b771 *01 Touch Of Grey.flac
1001912e75e6b4a7f0af956a7ce5f5c9 *02 Wang Dang Doodle.flac
cf20e6030859261e9cd74712019b5bc3 *03 Althea.flac
2dc5917f3e69e81e39c3b05ccb754704 *04 Me & My Uncle.flac
f4d233586e66de1235dd766faae7d6b6 *05 Mexicali Blues.flac
c77a1d652a822f73fc5c406acca54141 *06 Lazy River Road.flac
f909e4ef269ed42baebab552ddc73df0 *07 Eternity.flac
4cf7781c978d597206cd4ac6b0d9d36f *08 Tuning.flac
4f051ef474d144dfea8c6be03d9f6a6a *09 Box Of Rain.flac
98cf2dddc211185f0ead673546a67eb7 *10 Iko-Iko.flac
385472278f1894c270eda02dcb42048f *11 Playing In The Band.flac
6e74f2248cf04e7dc4dd2a5086e9af2f *12 Uncle John's Band.flac
747fde509ec806117f3ba4aa3045449a *13 Drumz.flac
36086bcd9bb974fd94431c0c5802df14 *14 Space.flac
25f993752aedf50ded7b7c3e2999bbb0 *15 The Wheel.flac
1519a2ba947e251e978708a9365b03f3 *16 All A Long The Watchtower.flac
aaaef668f17d4affb1dcca246164fe3f *17 Morning Dew.flac
dab22d6627073cdc2e7d3337832a32d6 *18 Rain.flac

Comments
Add Comment
Other Sources (comments)
SBD > DAT > CDR > EAC >... (0) flac16 44.1khz ... (0)
Date User Comment