Browse Collections Artists Sources   Search Dates

Add Show    List Management    Help


Grateful Dead 03/18/94
Rosemont Horizon, Rosemont, IL
Comments Add Comment    Source Collectors    Add to Collection    Add to Want List    History
Source # 140067 Other Sources
Entered by Matt Vernon
Checksums ffp , flac-md5
Disc Counts 0 / 0
Media Size
Date Circulated
Date Added

12/01/2017
Source Summary flac16/44 Source Info: FOB AKG 451 -> Koro P/S-> Panasonic SV255-> DAT Transfer Info: DAT (Panasonic SV-3700) -> Coxial SPDIF-> Marantz PMD 661 MKII (Solid State Recorder)-> SD Card-> Wav-> Flac Level 8-> Tagged (16/48) Transfers by Pete Ebel 
  Archive
Source Information - Download Text | Download Zip
Grateful Dead
Rosemont Horizon - Rosemont - IL
March 18, 1994

Source Info:
FOB AKG 451 -> Koro P/S-> Panasonic SV255-> DAT

Transfer Info:
DAT (Panasonic SV-3700) -> Coxial SPDIF-> Marantz PMD 661 MKII (Solid State Recorder)->
SD Card-> Wav-> Flac Level 8-> Tagged (16/48)


Transfers by Pete Ebel
November 7, 2017


Notes:
Set #2 is Seemless
Transfer From DAT -> Wav (48k)
FOB Tapers Get Asked to leave Seats During Deal Starting at 0:50


Set #1:
01. Tuning
02. Feel's Like A Stranger
03. Deal
04. El Paso
05. Brown-Eyed Women
06. Masterpiece
07. Ramble On Rose
08. Music Never Stopped

Set #2:
09. Tuning
10. Here Comes Sunshine
11. Saint Of Circumstance
12. Ship Of Fool's
13. Corrina
14. Drumz
15. Space
16. The Other One
17. Wharf Rat
18. Around & Around

Encore:
19. U.S. Blues




SHNTOOL OUTPUT:
    length     expanded size    cdr  WAVE problems  fmt   ratio  filename
     0:37.907       7278124 B   cxx   --   ---xx   flac  0.5032  01 Tuning.flac
     9:12.973     106170924 B   cxx   --   ---xx   flac  0.6451  02 Feel's Like A Stranger.flac
    10:26.173     120225324 B   cxx   --   ---xx   flac  0.6159  03 Deal.flac
     5:22.440      61908524 B   cxx   --   ---xx   flac  0.6371  04 El Paso.flac
     5:03.947      58357804 B   cxx   --   ---xx   flac  0.6343  05 Brown-Eyed Women.flac
     5:46.427      66513964 B   cxx   --   ---xx   flac  0.6165  06 Masterpiece.flac
     8:09.853      94051884 B   cxx   --   ---xx   flac  0.6274  07 Ramble On Rose.flac
     8:02.472      92634736 B   cxx   --   ---xx   flac  0.6471  08 Music Never Stopped.flac
     2:14.693      25861164 B   cxx   --   ---xx   flac  0.4077  09 Tuning.flac
     6:18.333      72640044 B   cxx   --   ---xx   flac  0.6330  10 Here Comes Sunshine.flac
     7:13.973      83322924 B   cxx   --   ---xx   flac  0.6303  11 Saint Of Circumstance.flac
     7:27.667      85952044 B   cxx   --   ---xx   flac  0.5469  12 Ship Of Fool's.flac
    11:22.973     131130924 B   cxx   --   ---xx   flac  0.6093  13 Corrina.flac
    14:48.160     170526764 B   cxx   --   ---xx   flac  0.5158  14 Drumz.flac
    13:07.733     151244844 B   cxx   --   ---xx   flac  0.4554  15 Space.flac
     7:45.893      89451564 B   cxx   --   ---xx   flac  0.5768  16 The Other One.flac
     9:55.400     114316844 B   cxx   --   ---xx   flac  0.5809  17 Wharf Rat.flac
     8:27.813      97500204 B   cxx   --   ---xx   flac  0.5726  18 Around & Around.flac
     5:21.644      61755652 B   cxx   --   ---xx   flac  0.5881  19 U.S. Blues.flac
   146:46.476    1690844256 B                            0.5829  (19 files)


Show Checksums
ffp
01 Tuning.flac:f2f6de0d6fe1a0b079b89b8c016fcfb7
02 Feel's Like A Stranger.flac:a710bdd6cff0c7d8ac8f98bc3bb90cc5
03 Deal.flac:2091ac6cbe6c1bccfaead127f2f71d0d
04 El Paso.flac:4027f3c2e5ff35ca859b420084e083d4
05 Brown-Eyed Women.flac:30005f80943bcbac2f5fcb54e46444a0
06 Masterpiece.flac:eb2f1d721c10fe91788c41044eb520e7
07 Ramble On Rose.flac:d3e330da94d725416e2ad9ebd1bf88b7
08 Music Never Stopped.flac:0833e6c5c685adf0c06d0b5da0a4f8c4
09 Tuning.flac:7956349faa92011764698270b2052f5a
10 Here Comes Sunshine.flac:e2459b96c3a4ea76c407d17ec072159f
11 Saint Of Circumstance.flac:c801475ff8861fd86670cef14bd91b9a
12 Ship Of Fool's.flac:808d0f18640abf9242ea6d3fb8035730
13 Corrina.flac:5b37066ee279f71728ac6a41fb7c1244
14 Drumz.flac:e251a59a82f2f4a1cb938557c9a3a3f0
15 Space.flac:d0bcb61cf8298697f84a815d77c31ae8
16 The Other One.flac:5826b56ef1c8289a46b4f966860842a1
17 Wharf Rat.flac:26ba1ddc9cdc5087ac65fa326e4f3a65
18 Around & Around.flac:0d7a1cca8d68daf8a6cd7bc1642f9443
19 U.S. Blues.flac:8dff906397df6bfe7db06364e2271f81
flac-md5
b58a385659ec89de8ad51845431faf5a *01 Tuning.flac
6adedb257979e1fd067244f15cd757f3 *02 Feel's Like A Stranger.flac
63e4c93355e54bb3ea71b2172d6bc1ef *03 Deal.flac
ac00f4a2cf86db041bfe3f43fd16f8ba *04 El Paso.flac
e96e07b95e09940bde50cf84df3b7f33 *05 Brown-Eyed Women.flac
8746a44f3fcf070e23b4f31fdaa06ca5 *06 Masterpiece.flac
fa24e41062cc147159dcfa37d96640b0 *07 Ramble On Rose.flac
721257155608f17503e01034e7481bfd *08 Music Never Stopped.flac
0baae60b68de83fcb2276b65a54d5d1d *09 Tuning.flac
b6b58f654edfeada405a27cd11dcc6b8 *10 Here Comes Sunshine.flac
0ddd18e26e61c3fac2d83bb0c5f50e00 *11 Saint Of Circumstance.flac
0c48ccb998322c194b54afbeb32771a0 *12 Ship Of Fool's.flac
17c3c391c4904fc082478832a0ae3d87 *13 Corrina.flac
3f86f44053b1bd0b671154f0dad8624f *14 Drumz.flac
8648cc709a7d3dba234270bf64f2291c *15 Space.flac
1e33428c97c24fda3618e7944a04c305 *16 The Other One.flac
be28b711a2807f69ccad007ca6f010af *17 Wharf Rat.flac
8c5c84ba82759f8ff3dec1299fde5d05 *18 Around & Around.flac
79c5d11bbe1679013925023b7a00f07f *19 U.S. Blues.flac

Comments
Add Comment
Other Sources (comments)
Source: Audience... (0) flac16; Recording... (0)
Date User Comment