Browse Collections Artists Sources   Search Dates

Add Show    List Management    Help


Phish 10/25/96
Hampton Coliseum, Hampton, VA
Comments Add Comment    Source Collectors    Add to Collection    Add to Want List    History
Source # 140088 Other Sources
Entered by Matt Vernon
Checksums ffp
Disc Counts 0 / 0
Media Size
Date Circulated
Date Added

12/04/2017
Source Summary flac16 44.1khz Source: AUD>Sennheiser 441>sony d7 Transfer: Fostex D-5>zoltrix nightingale>cdwave> soundforge 4.5 xp (resample)>cdwave (track splitting)>shn >flac8 
Source Information - Download Text | Download Zip
Phish 10-25-96
Hampton Coliseum
Hampton, VA

Source:  AUD>Sennheiser 441>sony d7
Transfer: Fostex D-5>zoltrix nightingale>cdwave> soundforge 4.5 xp (resample)>cdwave (track splitting)>shn >flac8

Disc 1, Set 1
01. Ha Ha Ha
02. Taste
03. Makisupa Policeman
04. Maze
05. Billy Breathes
06. Mound
07. Guelah Papyrus
08. I Didn't Know
09. Stash
10. The Squirming Coil

Disc 2, Set 2
01. Tube
02. Prince Caspian
03. Timber (Jerry)
04. TMWSIY->
05. Avenu Malkenu->
06. TMWSIY
07. NICU
08. Free
09. Strange Design
10. Harry Hood
11. Cavern
12. The Star Spangled Banner
13. E: Johnny B. Goode

- - —  shntool output - - - - -  - - - - - - - -

    length     expanded size    cdr  WAVE problems  fmt   ratio  filename
     1:44.30       18416204 B   ---   --   ---xx   flac  0.5938  961025d01t01.flac
     7:18.28       77329100 B   ---   --   ---xx   flac  0.5765  961025d01t02.flac
     6:30.23       68850140 B   ---   --   ---xx   flac  0.5059  961025d01t03.flac
    11:11.21      118413836 B   ---   --   ---xx   flac  0.5770  961025d01t04.flac
     4:58.20       52614284 B   ---   --   ---xx   flac  0.5390  961025d01t05.flac
     5:50.05       61751804 B   ---   --   ---xx   flac  0.5465  961025d01t06.flac
     5:34.12       58945868 B   ---   --   ---xx   flac  0.5336  961025d01t07.flac
     4:40.07       49408508 B   ---   --   ---xx   flac  0.5261  961025d01t08.flac
    13:44.48      145466540 B   ---   --   ---xx   flac  0.5508  961025d01t09.flac
    12:18.14      130216172 B   ---   --   ---xx   flac  0.4708  961025d01t10.flac
     4:27.59       47237612 B   ---   --   ---xx   flac  0.5613  961025d02t01.flac
     8:11.30       86683004 B   ---   --   ---xx   flac  0.5613  961025d02t02.flac
     6:33.62       69471068 B   ---   --   ---xx   flac  0.5669  961025d02t03.flac
     3:36.61       38245916 B   ---   --   ---xx   flac  0.4512  961025d02t04.flac
     3:05.41       32730476 B   ---   --   ---xx   flac  0.5698  961025d02t05.flac
     1:24.70       14982284 B   ---   --   ---xx   flac  0.4592  961025d02t06.flac
     4:59.32       52818908 B   ---   --   ---xx   flac  0.5703  961025d02t07.flac
     8:22.37       88639868 B   ---   --   ---xx   flac  0.5935  961025d02t08.flac
     2:53.19       30561932 B   ---   --   ---xx   flac  0.5370  961025d02t09.flac
    14:46.04      156299852 B   ---   --   ---xx   flac  0.5538  961025d02t10.flac
     5:41.25       60211244 B   ---   --   ---xx   flac  0.6185  961025d02t11.flac
     1:33.50       16522844 B   ---   --   ---xx   flac  0.5305  961025d02t12.flac
     4:51.66       51487676 B   ---   --   ---xx   flac  0.6294  961025d02t13.flac
   144:18.14     1527305140 B                            0.5507  (23 files)



Show Checksums
ffp
961025d01t01.flac:dda1a35d9e60cf0a63a763d3ab9b0861
961025d01t02.flac:1d7c981b9925d3bc4c9be54c061b06c6
961025d01t03.flac:c391c85360fe697843e63d012e95b501
961025d01t04.flac:e7d815115785ff16c06dc7a2936e4970
961025d01t05.flac:7245a63df8476ac3d866cb96efd9be7a
961025d01t06.flac:732b0cd0606d7982ff074a292d72b017
961025d01t07.flac:4453aea4f9886d0f670fb30d3a139379
961025d01t08.flac:36a65c2d0fe6cd604383c3176a70c1ef
961025d01t09.flac:fd20eaf1852623e20bd4b92d0febd6f9
961025d01t10.flac:27087f98993dc87b29eb5301999e82bf
961025d02t01.flac:02abc0a581fd7755769a835ecc4b2afb
961025d02t02.flac:1e071ac2d5d1481dffe494ecd8e7eb5d
961025d02t03.flac:dda88efafe2c6620e0cc670d30362d48
961025d02t04.flac:6dc4fe2d9e91e447d8a6a5bec66987d9
961025d02t05.flac:a27529bd8ab6c7580d5a0f4f8611f8fd
961025d02t06.flac:f02f71be916a08cd2b7ae70a196a0774
961025d02t07.flac:baef5151530139440809cea0c65ca8fa
961025d02t08.flac:51e648bd91e6ff44cd7e7cdff029b5c0
961025d02t09.flac:31961980d8511e6ffc3afc21b87a7804
961025d02t10.flac:fc0b5c29e637e2c1725460e971459963
961025d02t11.flac:e407513851a28796e44200c5e688aefc
961025d02t12.flac:c548de797d1affe304e5104c105a96cc
961025d02t13.flac:606fd84497d8e75627df7c08180d4efe

Comments
Add Comment
Other Sources (comments)
FOB AKG 483 > SX-M2 > D7 >... (0) FOB AKG 483s > Sonosax SX... (0) AUD; Casio DA-R100 >... (1) FOB Schoeps mk41 >... (0) AKG 460b/ck61 > AKG b18 >... (0) Nakamichi CM300's/CP4's >... (1) flac16; AKG... (0) flac16; Schoeps... (0) flac16, 48kHz;... (0) flac16, 48kHz;... (0) flac16 48kHz... (0)
Date User Comment