Browse Collections Artists Sources   Search Dates

Add Show    List Management    Help


Grateful Dead 09/25/93
Boston Garden, Boston, MA
Comments Add Comment    Source Collectors    Add to Collection    Add to Want List    History
Source # 140092 Other Sources
Entered by Matt Vernon
Checksums ffp , flac-md5
Disc Counts 0 / 0
Media Size
Date Circulated
Date Added
12/05/2017
12/05/2017
Source Summary flac16/48kHz; Recording Info: Rich Gastwirt's Master Audience Dat 16/48; Schoeps CMC4/MK4 -> Oade P/S -> Panasonic SV-255; Transfer Info: Dat (Panasonic SV-3800) 16/48 -> Tascam DA-3000 16/48 -> Adobe Audition 3.0 -> TLH flac1648 
  Archive
Source Information - Download Text | Download Zip
Grateful Dead
Boston Garden
Boston, MA
Saturday September 25, 1993

Recording Info:
Rich Gastwirt's Master Audience Dat 16/48; Schoeps CMC4/MK4 -> Oade P/S -> Panasonic SV-255

Transfer Info:
Dat (Panasonic SV-3800) 16/48 -> Tascam DA-3000 16/48 -> Adobe Audition 3.0 -> TLH flac1648

Notes:
- Thanks to Rich Gastwirt for the master Dat source
- Thanks to Charlie Miller for the transfer
- Wheel space included in "The Wheel"
- Rex Foundation Benefit


Mastered by Scott Clugston
12/3/17

Set 1:
s1 t01 - Crowd / Tuning
s1 t02 - Cold Rain And Snow ->
s1 t03 - Wang Dang Doodle
s1 t04 - Loser
s1 t05 - It's All Over Now
s1 t06 - Just Like Tom Thumb's Blues
s1 t07 - Cassidy ->
s1 t08 - Deal

Set 2:
s2 t01 - Crowd / Tuning
s2 t02 - Foolish Heart ->
s2 t03 - Box Of Rain ->
s2 t04 - Crazy Fingers ->
s2 t05 - Corrina ->
s2 t06 - Drums ->
s2 t07 - Space ->
s2 t08 - The Wheel ->
s2 t09 - All Along The Watchtower ->
s2 t10 - Black Peter ->
s2 t11 - One More Saturday Night
s2 t12 - Encore Break
s2 t13 - I Fought The Law



    length     expanded size    cdr  WAVE problems  fmt   ratio  filename
     1:03.160      12126764 B   cxx   --   ---xx   flac  0.4350  gd93-09-25 s1 t01 Crowd.flac
     6:28.467      74585644 B   cxx   --   ---xx   flac  0.5700  gd93-09-25 s1 t02 Cold Rain & Snow.flac
     6:26.427      74193964 B   cxx   --   ---xx   flac  0.5396  gd93-09-25 s1 t03 Wang Dang Doodle.flac
     7:27.760      85969964 B   cxx   --   ---xx   flac  0.5367  gd93-09-25 s1 t04 Loser.flac
     7:18.640      84218924 B   cxx   --   ---xx   flac  0.5491  gd93-09-25 s1 t05 It's All Over Now.flac
     6:05.667      70208044 B   cxx   --   ---xx   flac  0.5347  gd93-09-25 s1 t06 Just Like Tom Thumb's Blues.flac
     7:16.280      83765804 B   cxx   --   ---xx   flac  0.5639  gd93-09-25 s1 t07 Cassidy.flac
     8:54.527     102629148 B   cxx   --   ---xx   flac  0.5727  gd93-09-25 s1 t08 Deal.flac
     3:16.120      37655084 B   cxx   --   ---xx   flac  0.3936  gd93-09-25 s2 t01 Crowd.flac
    12:44.893     146859564 B   cxx   --   ---xx   flac  0.5657  gd93-09-25 s2 t02 Foolish Heart.flac
     5:01.480      57884204 B   cxx   --   ---xx   flac  0.5463  gd93-09-25 s2 t03 Box Of Rain.flac
     8:37.800      99417644 B   cxx   --   ---xx   flac  0.5163  gd93-09-25 s2 t04 Crazy Fingers.flac
    15:19.133     176473644 B   cxx   --   ---xx   flac  0.5439  gd93-09-25 s2 t05 Corrina.flac
    14:54.853     171811884 B   cxx   --   ---xx   flac  0.5048  gd93-09-25 s2 t06 Drums.flac
    11:41.787     134743084 B   cxx   --   ---xx   flac  0.4959  gd93-09-25 s2 t07 Space.flac
     5:14.933      60467244 B   cxx   --   ---xx   flac  0.5654  gd93-09-25 s2 t08 The Wheel.flac
     6:56.000      79872044 B   cxx   --   ---xx   flac  0.5829  gd93-09-25 s2 t09 All Along The Watchtower.flac
     8:47.253     101232684 B   cxx   --   ---xx   flac  0.5162  gd93-09-25 s2 t10 Black Peter.flac
     5:05.413      58639404 B   cxx   --   ---xx   flac  0.5822  gd93-09-25 s2 t11 One More Saturday Night.flac
     2:25.080      27855404 B   cxx   --   ---xx   flac  0.4619  gd93-09-25 s2 t12 Encore Break.flac
     3:16.567      37740936 B   cxx   --   ---xx   flac  0.5512  gd93-09-25 s2 t13 I Fought The Law.flac
   154:22.240    1778351080 B                            0.5370  (21 files)

No errors occured.


Show Checksums
ffp
gd93-09-25 s1 t01 Crowd.flac:a7638972e1da1bc1f8e285cf28a5effc
gd93-09-25 s1 t02 Cold Rain & Snow.flac:7ade5df27be962e88f5aa7b9ed14a2bb
gd93-09-25 s1 t03 Wang Dang Doodle.flac:985afd38ee3b9496828f6615188ba8a0
gd93-09-25 s1 t04 Loser.flac:5cf2a90afc1aac7df7169e8eb1f19cd6
gd93-09-25 s1 t05 It's All Over Now.flac:52b64703ee615aab0246d09adffc6de6
gd93-09-25 s1 t06 Just Like Tom Thumb's Blues.flac:7a4875f01055fc9d577bf7f1d9c35928
gd93-09-25 s1 t07 Cassidy.flac:932ec5475f892a66a11df920f7da227c
gd93-09-25 s1 t08 Deal.flac:ab1d8b4939dd40e91c937ca5a44e660a
gd93-09-25 s2 t01 Crowd.flac:e2113e695325744d31450df88fea57fa
gd93-09-25 s2 t02 Foolish Heart.flac:935c2f51f61e933a15081451505e683f
gd93-09-25 s2 t03 Box Of Rain.flac:6a7646f4fdc560a732f5fdf2049ec4ce
gd93-09-25 s2 t04 Crazy Fingers.flac:6cfe8d03e635aea6cfb66ad2a8b0654c
gd93-09-25 s2 t05 Corrina.flac:4cbbe3b01047aeb4d0967738fbc7a735
gd93-09-25 s2 t06 Drums.flac:a0450cbfb8a103e67ce71ee9e1c6ef58
gd93-09-25 s2 t07 Space.flac:7a764733f0e70fe04aca3888de527085
gd93-09-25 s2 t08 The Wheel.flac:a80e0db0f5c0f873a8a658b0a2d984a5
gd93-09-25 s2 t09 All Along The Watchtower.flac:2e7c3f8237958796fd04ae263a28e8b1
gd93-09-25 s2 t10 Black Peter.flac:9f6917f274b376dc5b950778e846670f
gd93-09-25 s2 t11 One More Saturday Night.flac:bbcb28ca289473f69ffe39b0f005e57d
gd93-09-25 s2 t12 Encore Break.flac:2b5e172c7c769d6274d6dae400f77082
gd93-09-25 s2 t13 I Fought The Law.flac:51fcbfc35d78c506c00831f6ee68a469
flac-md5
2f512af6424f9599093dd23aefd0e2cd *gd93-09-25 s1 t01 Crowd.flac
cfcd8a36f10051eddd9eb70760cc18ad *gd93-09-25 s1 t02 Cold Rain & Snow.flac
d55c140c062997bd4a05e22eb94a4116 *gd93-09-25 s1 t03 Wang Dang Doodle.flac
95737b50c8aaf364eed462d82bed7544 *gd93-09-25 s1 t04 Loser.flac
e5226ef432f91efa6dd74d42565701a7 *gd93-09-25 s1 t05 It's All Over Now.flac
54e94995f4637245ff5de6dec78c44b1 *gd93-09-25 s1 t06 Just Like Tom Thumb's Blues.flac
bbef50bd67c0334405f263677714ca11 *gd93-09-25 s1 t07 Cassidy.flac
d01d693b58f589883214a053da5ab849 *gd93-09-25 s1 t08 Deal.flac
f14d3a3cf609361f4a78df44f74d19fe *gd93-09-25 s2 t01 Crowd.flac
7d673da434a160f686bac129e6e9a1f9 *gd93-09-25 s2 t02 Foolish Heart.flac
c33f3ab1c4eb66b40756dda15a49b984 *gd93-09-25 s2 t03 Box Of Rain.flac
8826f915fc103270b95121b34449b07d *gd93-09-25 s2 t04 Crazy Fingers.flac
f5f1002940eddffdc954d72362ccd940 *gd93-09-25 s2 t05 Corrina.flac
63002afe628a43da928da6b215d9be05 *gd93-09-25 s2 t06 Drums.flac
43e8532a47c1de39c613525c45879689 *gd93-09-25 s2 t07 Space.flac
8389dcb9ea6c3e8839ea460dad962cae *gd93-09-25 s2 t08 The Wheel.flac
8543608c166f3221cf22c5c036b1686a *gd93-09-25 s2 t09 All Along The Watchtower.flac
af32c31ef00d445c404fd4fc8534e36f *gd93-09-25 s2 t10 Black Peter.flac
547b728535ce82889bfd2d4f733b31a0 *gd93-09-25 s2 t11 One More Saturday Night.flac
e2b52ecfe893df7d497565e4a8f8859a *gd93-09-25 s2 t12 Encore Break.flac
1f42461f97eba11f32b0745ce7a8437e *gd93-09-25 s2 t13 I Fought The Law.flac

Comments
Add Comment
Other Sources (comments)
Set 1 Schoeps (unknown... (0) flac16; Recording... (0) flac16; Source:... (0) flac16; Set 2 Only... (0) flac16; Source:... (0) flac24; Set 1... (0) flac16; Set 1... (0) flac16/48kHz;... (0) flac16/48kHz;... (0)
Date User Comment