Browse Collections Artists Sources   Search Dates

Add Show    List Management    Help


Bob Weir & Brent Mydland 04/26/88
Marin Veterans' Memorial Auditorium, San Rafael, CA
Comments Add Comment    Source Collectors    Add to Collection    Add to Want List    History
Source # 140121 Other Sources
Entered by Todd
Checksums brent + bob1988-04-26.ffp , brent + bob1988-04-26.md5
Disc Counts 0 / 0
Media Size Compressed: 1.29 GB (1385592974 bytes)
Date Circulated
Date Added
12/04/2017
12/05/2017
Source Summary flac24 SBD > Cassette Master (TDK MA-XG90) > Cassette Master (Nakamichi CR-7A) > Tascam DA-3000 (DSF 1-bit/5.8 MHz) > KORG AudioGate 4 > Samplitude Pro X3 Suite > FLAC/24 (1 Disc FLAC) 
Source Information - Download Text | Download Zip
Brent Mydland & Bob Weir - April 26, 1988
Marin Veteran's Memorial Auditorium - San Rafael, CA

Recording Info:
SBD > Cassette Master (TDK MA-XG90)

Transfer Info:
Cassette Master (Nakamichi CR-7A) > Tascam DA-3000 (DSF 1-bit/5.8 MHz) >
KORG AudioGate 4 > Samplitude Pro X3 Suite > FLAC/24
(1 Disc FLAC)

All Transfers and Mastering By Charlie Miller
[email protected]
December 3, 2017

Notes:
-- There is some static coming from Bobby's guitar

Brent Mydland:
01 - Introduction
02 - Love Doesn't Have To Be Pretty
03 - Far From Me
04 - Gentlemen Start Your Engines
05 - Devil With A Blue Dress >
06 - Good Golly Miss Molly >
07 - Devil With A Blue Dress
08 - I Will Take You Home

Brent Mydland & Bob Weir:
09 - Hey Jude >
10 - Dear Mr. Fantasy >
11 - Hey Jude

Bob Weir:
12 - Walkin' Blues >
13 - When I Paint My Masterpiece >
14 - The Winners >
15 - This Time Forever >
16 - Victim Or The Crime >
17 - Throwing Stones >


SHNTOOL OUTPUT:
    length     expanded size    cdr  WAVE problems  fmt   ratio  filename
     0:25.467      14669108 B   cxx   --   ---xx   flac  0.6410  01 Introduction.flac
     5:53.232     203461874 B   cxx   --   ---xx   flac  0.6627  02 Love Doesn't Have to Be Pretty.flac
     4:37.366     159763028 B   cxx   --   ---xx   flac  0.6622  03 Far From Me.flac
     4:18.401     148838972 B   cxx   --   ---xx   flac  0.6569  04 Gentlemen Start Your Engines.flac
     2:43.876      94392836 B   cxx   --   ---xx   flac  0.6642  05 Devil With A Blue Dress.flac
     0:49.604      28571672 B   cxx   --   ---xx   flac  0.6755  06 Good Golly Miss Molly.flac
     1:01.333      35328068 B   cxx   --   ---xx   flac  0.6740  07 Devil With A Blue Dress.flac
     4:54.884     169853174 B   cxx   --   ---xx   flac  0.6903  08 I Will Take You Home.flac
     4:06.761     142134590 B   cxx   --   ---xx   flac  0.6672  09 Hey Jude.flac
     3:02.011     104838098 B   cxx   --   ---xx   flac  0.6764  10 Dear Mr Fantasy.flac
     1:01.128      35209862 B   cxx   --   ---xx   flac  0.6851  11 Hey Jude.flac
     4:22.775     151358630 B   cxx   --   ---xx   flac  0.6718  12 Walkin' Blues.flac
     4:01.757     139252130 B   cxx   --   ---xx   flac  0.6899  13 When I Paint My Masterpiece.flac
     2:33.764      88567976 B   cxx   --   ---xx   flac  0.6906  14 The Winners.flac
     3:35.048     123867572 B   cxx   --   ---xx   flac  0.6884  15 This Time Forever.flac
     3:58.561     137411234 B   cxx   --   ---xx   flac  0.6946  16 Victim Or The Crime.flac
     7:46.240     268554530 B   cxx   --   ---xx   flac  0.6898  17 Throwing Stones.flac
    59:12.209    2046073354 B                            0.6772  (17 files)



Show Checksums
brent + bob1988-04-26.ffp
01 Introduction.flac:0c30c87c3ccabf03f7a05c37877772e6
02 Love Doesn't Have to Be Pretty.flac:b960839e78184901d0709df5f1e0a5f7
03 Far From Me.flac:f5e2ad39c117d683586110b9bad53074
04 Gentlemen Start Your Engines.flac:e0e85e2c7b138d2d4617ddef919f9f8f
05 Devil With A Blue Dress.flac:c7115236438343e3aeeeb7ae43453f1b
06 Good Golly Miss Molly.flac:8036cbccd3b5d287bd29586d4bfb2c70
07 Devil With A Blue Dress.flac:076adafec792881fd64367728c558a86
08 I Will Take You Home.flac:ac6363ec9360900e63b23f6a6a11e258
09 Hey Jude.flac:5f268a45818609b53f7c04210b6f2f58
10 Dear Mr Fantasy.flac:9816d07a02554e6d437317b6d374e19a
11 Hey Jude.flac:f8f21af9069883294e544b4c374e453f
12 Walkin' Blues.flac:c7042c115a962f9c11777289ec6c2305
13 When I Paint My Masterpiece.flac:f5ab17c5a2edcde1f35d259bc57b6516
14 The Winners.flac:55d35427fe045ee1080622244c760f7c
15 This Time Forever.flac:ba53a1ff35988babfa5eb2bdf90e24c6
16 Victim Or The Crime.flac:daf0468250972bc0cd24943d3a46c472
17 Throwing Stones.flac:363c1bb1de0aa83519f4673f877de662
brent + bob1988-04-26.md5
222f17ea1dc3c426c5d5c46a2257abc5 *01 Introduction.flac
388f8b700a39f7a7e685bb08ecf97470 *02 Love Doesn't Have to Be Pretty.flac
ebd2f0480a3d551426d81b5e3b91e5a7 *03 Far From Me.flac
72593728301c48d7b13ab9f61a486720 *04 Gentlemen Start Your Engines.flac
ce265ef5747804cd265b4f82d221ef99 *05 Devil With A Blue Dress.flac
9732f8949cad07e03ecaa3f6d003a02c *06 Good Golly Miss Molly.flac
cafe4d958307daf24dbd82c48fc340d3 *07 Devil With A Blue Dress.flac
a2a359e87d66ac7dacadbe48715b37de *08 I Will Take You Home.flac
f9963dc833af79ba552eb1df53a4a34d *09 Hey Jude.flac
195a65aa0cd123e7085fb37200ee766a *10 Dear Mr Fantasy.flac
ed274ffe93754fb42f51d2541787e2ef *11 Hey Jude.flac
a005a57852d7b651f4ca7005d431f290 *12 Walkin' Blues.flac
71faf20337457bac7a8588cc351c92ef *13 When I Paint My Masterpiece.flac
336ca260dc1a202ad8eff0dab204b15c *14 The Winners.flac
711dc38c31ab8ba55e899a3ac64d396f *15 This Time Forever.flac
56cd3e438717335913f08d8291b39a40 *16 Victim Or The Crime.flac
b55781bba0dbb8530fb102ac74decf7e *17 Throwing Stones.flac

Comments
Add Comment
Other Sources (comments)
Hat-Mounted Realistic PZM's... (0) Source: Unknown AUD, kindly... (0) flac16 SBD >... (0)
Date User Comment