Browse Collections Artists Sources   Search Dates

Add Show    List Management    Help


Grateful Dead 08/18/87
Compton Terrace Amphitheatre, Tempe, AZ
Comments Add Comment    Source Collectors    Add to Collection    Add to Want List    History
Source # 140125 Other Sources
Entered by Matt Vernon
Checksums ffp , flac-md5
Disc Counts 0 / 0
Media Size
Date Circulated
Date Added
12/06/2017
12/06/2017
Source Summary flac24; Set 1 Recording Info: UltraMatrix SBD > Cassette Master (TDK MA-R90); Transfer Info: Cassette Master (Nakamichi CR-7A) > Tascam DA-3000 (DSF 1-bit/5.8 MHz) > KORG AudioGate 4 > Samplitude Pro X3 Suite > FLAC/24; All Transfers and Mastering By Charlie Miller 
  Archive
Source Information - Download Text | Download Zip
Grateful Dead - August 18, 1987
Compton Terrace Amphitheatre - Tempe, AZ

Recording Info:
UltraMatrix SBD > Cassette Master (TDK MA-R90)

Transfer Info:
Cassette Master (Nakamichi CR-7A) > Tascam DA-3000 (DSF 1-bit/5.8 MHz) >
KORG AudioGate 4 > Samplitude Pro X3 Suite > FLAC/24
(1 Disc FLAC)

All Transfers and Mastering By Charlie Miller
[email protected]
December 5, 2017

Notes:
-- Set 2 is currently missing

Set 1:
01 - Hell In A Bucket >
02 - Sugaree
03 - Walkin' Blues
04 - Ramble On Rose
05 - My Brother Esau
06 - Peggy-O
07 - Greatest Story Ever Told >
08 - Bertha


SHNTOOL OUTPUT:
    length     expanded size    cdr  WAVE problems  fmt   ratio  filename
     6:01.490     208218128 B   cxx   --   ---xx   flac  0.6812  01 Hell In A Bucket.flac
    10:26.989     361145642 B   cxx   --   ---xx   flac  0.6659  02 Sugaree.flac
     7:27.161     257564852 B   cxx   --   ---xx   flac  0.6607  03 Walkin' Blues.flac
     8:44.460     302089130 B   cxx   --   ---xx   flac  0.6624  04 Ramble On Rose.flac
     4:47.272     165468764 B   cxx   --   ---xx   flac  0.6710  05 My Brother Esau.flac
     7:05.818     245270972 B   cxx   --   ---xx   flac  0.6630  06 Peggy-O.flac
     3:59.095     137719052 B   cxx   --   ---xx   flac  0.6752  07 Greatest Story Ever Told.flac
     6:46.235     233991392 B   cxx   --   ---xx   flac  0.6742  08 Bertha.flac
    55:18.520    1911467932 B                            0.6681  (8 files)


Show Checksums
ffp
01 Hell In A Bucket.flac:5d15fa077e45af1d0e3fceae9a27b5ea
02 Sugaree.flac:336540df3a7e88ff7f13747fa1314e4a
03 Walkin' Blues.flac:dd08a14e458bc98dc4823019b0472e36
04 Ramble On Rose.flac:7fe5aaf4532e3a01e775a779a9daa830
05 My Brother Esau.flac:4b3d566d8f96da544d38505888a583ae
06 Peggy-O.flac:e4dcb223d144a889973449949df4452a
07 Greatest Story Ever Told.flac:78d09cc8ff6396c410a536d3e877820b
08 Bertha.flac:d74e84e7751f9077ea0743bd1608e6ce
flac-md5
eda543f6a1980bb158253b0ff43caa71 *01 Hell In A Bucket.flac
3fdb90945721075fe8c4178fdff0d3ef *02 Sugaree.flac
4fa196a2b921db62d9e05201b7f11000 *03 Walkin' Blues.flac
a531c10eb50d64938740bf68febbab6a *04 Ramble On Rose.flac
7fb3a074e2c3ff15d3b4b3b6bf619064 *05 My Brother Esau.flac
2b82e064117931c571c61f65933367cd *06 Peggy-O.flac
2a3e8fd966806aba2f0a6278442c343c *07 Greatest Story Ever Told.flac
af0b8f8132b99eddde9bd181afd77a4d *08 Bertha.flac

Comments
Add Comment
Other Sources (comments)
Schoeps CMC 32s > DAT > CD;... (1) flac16; FOB Schoeps... (1) flac16; Rich... (0) flac16; Set 1... (0) flac16; Source Info:... (0)
Date User Comment