Browse Collections Artists Sources   Search Dates

Add Show    List Management    Help


Grateful Dead 08/20/87
Park West Ski Resort, Park City, UT
Comments Add Comment    Source Collectors    Add to Collection    Add to Want List    History
Source # 140126 Other Sources
Entered by Matt Vernon
Checksums ffp , flac-md5
Disc Counts 0 / 0
Media Size
Date Circulated
Date Added
12/05/2017
12/06/2017
Source Summary flac24; Recording Info: UltraMatrix SBD > Cassette Master (TDK MA-R90); Transfer Info: Cassette Master (Nakamichi CR-7A) > Tascam DA-3000 (DSF 1-bit/5.8 MHz) > KORG AudioGate 4 > Samplitude Pro X3 Suite > FLAC/24; All Transfers and Mastering By Charlie Miller 
  Archive
Source Information - Download Text | Download Zip
Grateful Dead - August 20, 1987
Park West Ski Area - Park City, UT

Recording Info:
UltraMatrix SBD > Cassette Master (TDK MA-R90)

Transfer Info:
Cassette Master (Nakamichi CR-7A) > Tascam DA-3000 (DSF 1-bit/5.8 MHz) >
KORG AudioGate 4 > Samplitude Pro X3 Suite > FLAC/24
(1 Disc FLAC)

All Transfers and Mastering By Charlie Miller
[email protected]
December 5, 2017

Notes:
-- Two sets of masters were used to make this show complete

Set 1:
01 - Tuning
02 - The Addams Family
03 - Big Boss Man >
04 - Promised Land
05 - Dire Wolf
06 - New Minglewood Blues
07 - Row Jimmy
08 - It's All Over Now
09 - Loser
10 - Cassidy
11 - When Push Comes To Shove

Set 2:
12 - Tuning
13 - China Cat Sunflower >
14 - I Know You Rider
15 - Man Smart (Woman Smarter)
16 - Ship Of Fools
17 - Truckin' >
18 - Smokestack Lightning >
19 - Drums >
20 - Space >
21 - The Wheel >
22 - Gimme Some Lovin' >
23 - All Along The Watchtower >
24 - Stella Blue >
25 - Sugar Magnolia

Encore:
26 - Encore Break
27 - The Mighty Quinn (Quinn The Eskimo)


SHNTOOL OUTPUT:
    length     expanded size    cdr  WAVE problems  fmt   ratio  filename
     2:39.794      92041208 B   cxx   --   ---xx   flac  0.6263  01 Tuning.flac
     3:12.967     111148766 B   cxx   --   ---xx   flac  0.6326  02 The Addams Family.flac
     5:28.112     188992676 B   cxx   --   ---xx   flac  0.6881  03 Big Boss Man.flac
     5:27.567     188678888 B   cxx   --   ---xx   flac  0.6823  04 Promised Land.flac
     3:45.130     129674828 B   cxx   --   ---xx   flac  0.6819  05 Dire Wolf.flac
     8:42.038     300693914 B   cxx   --   ---xx   flac  0.6730  06 New Minglewood Blues.flac
    10:51.328     375165260 B   cxx   --   ---xx   flac  0.6776  07 Row Jimmy.flac
     7:19.235     252999686 B   cxx   --   ---xx   flac  0.6833  08 It's All Over Now.flac
     9:18.283     321571316 B   cxx   --   ---xx   flac  0.6672  09 Loser.flac
     6:46.474     234129086 B   cxx   --   ---xx   flac  0.6817  10 Cassidy.flac
     5:14.675     181252616 B   cxx   --   ---xx   flac  0.6770  11 When Push Comes To Shove.flac
     1:01.749      35567498 B   cxx   --   ---xx   flac  0.6178  12 Tuning.flac
     5:13.452     180548594 B   cxx   --   ---xx   flac  0.6694  13 China Cat Sunflower.flac
     6:09.823     213017894 B   cxx   --   ---xx   flac  0.6726  14 I Know You Rider.flac
     7:24.774     256189628 B   cxx   --   ---xx   flac  0.6755  15 Man Smart (Woman Smarter).flac
     8:19.174     287524298 B   cxx   --   ---xx   flac  0.6640  16 Ship Of Fools.flac
     6:29.565     224389730 B   cxx   --   ---xx   flac  0.6780  17 Truckin'.flac
     4:16.309     147634004 B   cxx   --   ---xx   flac  0.6649  18 Smokestack Lightning.flac
    10:21.606     358045274 B   cxx   --   ---xx   flac  0.6370  19 Drums.flac
     6:19.679     218695034 B   cxx   --   ---xx   flac  0.6398  20 Space.flac
     4:29.181     155048390 B   cxx   --   ---xx   flac  0.6691  21 The Wheel.flac
     4:41.511     162150212 B   cxx   --   ---xx   flac  0.6823  22 Gimme Some Lovin'.flac
     5:29.014     189512300 B   cxx   --   ---xx   flac  0.6804  23 All Along The Watchtower.flac
     8:40.799     299980292 B   cxx   --   ---xx   flac  0.6559  24 Stella Blue.flac
     8:32.080     294957962 B   cxx   --   ---xx   flac  0.6836  25 Sugar Magnolia.flac
     1:54.229      65796104 B   cxx   --   ---xx   flac  0.6427  26 Encore Break.flac
     5:14.974     181424882 B   cxx   --   ---xx   flac  0.6722  27 The Mighty Quinn (Quinn The Eskimo).flac
   163:23.523    5646830340 B                            0.6687  (27 files)


Show Checksums
ffp
01 Tuning.flac:b086d1db89a2049fa7d76d616236f256
02 The Addams Family.flac:e367d5b22a2ede7a046579feea2284d4
03 Big Boss Man.flac:5f632990e71c70fcc0961fdc1b3c6c82
04 Promised Land.flac:5f84323b442b5fa577585dba05899e4b
05 Dire Wolf.flac:d76f166803fc27075ccd9afa4cd56cae
06 New Minglewood Blues.flac:076e8c1871edc60fc3a8d7ca6b987ac1
07 Row Jimmy.flac:56f47dc3d5a4b55a0b437e3f6e6a2f50
08 It's All Over Now.flac:f3310ec0973322c9224d0aab5c6bd4da
09 Loser.flac:cc194e35d4dfce54e80a68482b09d3cd
10 Cassidy.flac:65257faff3563caab071df85f2560343
11 When Push Comes To Shove.flac:6253ecba5f0ef764a08bed7e920b1492
12 Tuning.flac:95649c204127d7499f6c4b99664de8e8
13 China Cat Sunflower.flac:28f0520de5080bafc05d4476912d8c2c
14 I Know You Rider.flac:b58ea4a99d23ffaa03ed534905ad7e53
15 Man Smart (Woman Smarter).flac:112fa71cbf6dbdfd72dc95e93dc5641b
16 Ship Of Fools.flac:df32fa5ff3d300a7dcb09b416c2322fc
17 Truckin'.flac:10cfa4c8f47b0947ba2ed049481a603a
18 Smokestack Lightning.flac:26163992f0fd919f9d3913e6c9cedf57
19 Drums.flac:ee25cf74d45170e22ee644617474e952
20 Space.flac:4edbed7dd939bec7db9682357d760c6c
21 The Wheel.flac:3ec7cb3d3fcad0a1a68577910a3d7eb3
22 Gimme Some Lovin'.flac:1383ce2bb594033726abbdbfbed6f262
23 All Along The Watchtower.flac:643992c2c5596b6fae56fa9af408a849
24 Stella Blue.flac:e8c1cf89a6ca558be11fc3c01c67b503
25 Sugar Magnolia.flac:aac3c80f685173d8901ebfdde8d337c6
26 Encore Break.flac:3f11d5610a7fcb185329b0b401b2bef8
27 The Mighty Quinn (Quinn The Eskimo).flac:933da6379691377cc7d9f48c10812c13
flac-md5
bb51e32092ce59b962f1d2213dd7bb86 *01 Tuning.flac
4e5d9baf86c6ec21b1375b47756eae88 *02 The Addams Family.flac
cea7ec944b0ad3519d6a243c2a71634a *03 Big Boss Man.flac
438336ce620224fc7af4aa9479343d22 *04 Promised Land.flac
e454c816cb7b856d6c63306ebe5c2b62 *05 Dire Wolf.flac
5f80cee8075cad005c0931f6f4ab8fe2 *06 New Minglewood Blues.flac
4b8937ee50599f3d9eb489660ac48a8a *07 Row Jimmy.flac
29449a9dc135a0021261933c75a53ea2 *08 It's All Over Now.flac
5fb685a7743b995e8460cf049f827622 *09 Loser.flac
70f7c3225621cde063efbcdcc955c642 *10 Cassidy.flac
d8542b4f3697775eeb7ad184fa55db2e *11 When Push Comes To Shove.flac
4303bdd177a1be3b2be8b18ece614328 *12 Tuning.flac
1f7df438d808ff95cc42a5445808b538 *13 China Cat Sunflower.flac
683fb1e3508b84de404112c3010ecfe4 *14 I Know You Rider.flac
f37bc4688ace23480d225b45a71de659 *15 Man Smart (Woman Smarter).flac
e8c4e8e7fdb4d1c6e41181cc66217213 *16 Ship Of Fools.flac
8b18c0217b34a069c56189284d338bc8 *17 Truckin'.flac
c311cf1cb0aaca618a02a20a45f7d507 *18 Smokestack Lightning.flac
e24bce0dc9c36ec935ea5ed4d6b6bee6 *19 Drums.flac
956e65de7cdadc4dd2932d63b824e57f *20 Space.flac
738813c09e9bdd2116912295acd84d18 *21 The Wheel.flac
75aeb1ba94347a3b7d01f6d9ac80f48a *22 Gimme Some Lovin'.flac
99e20a8b3d454b535288381ba76f5786 *23 All Along The Watchtower.flac
80405cfd9590afd1936cb4e12d7721d3 *24 Stella Blue.flac
6642605ed8425a634153feeca625912e *25 Sugar Magnolia.flac
ad5a94d1980f9dda11bdfe2123b1d71f *26 Encore Break.flac
4d037af482ab3ac64a89465333e21cfa *27 The Mighty Quinn (Quinn The Eskimo).flac

Comments
Add Comment
Other Sources (comments)
unk. mic's > DAT > CDR;... (0) flac16: Set 2 only -... (1) >b>flac16; FOB Schoeps... (0) flac16; Recording... (0) flac16; Source Info:... (0)
Date User Comment