Browse Collections Artists Sources   Search Dates

Add Show    List Management    Help


Grateful Dead 05/14/93
Sam Boyd Silver Bowl, U.N.L.V., Las Vegas, NV
Comments Add Comment    Source Collectors    Add to Collection    Add to Want List    History
Source # 140129 Other Sources
Entered by Matt Vernon
Checksums flac-md5 , ffp
Disc Counts 0 / 0
Media Size
Date Circulated
Date Added
12/05/2017
12/06/2017
Source Summary flac24; Recording Info: SBD > Cassette Master (TDK SA-X100); Transfer Info: Cassette Master (Nakamichi CR-7A) > Tascam DA-3000 (DSF 1-bit/5.8 MHz) > KORG AudioGate 4 > Samplitude Pro X3 Suite > FLAC/24; All Transfers and Mastering By Charlie Miller 
  Archive
Source Information - Download Text | Download Zip
Grateful Dead - May 14, 1993
Sam Boyd Silver Bowl - Las Vegas, NV

Recording Info:
SBD > Cassette Master (TDK SA-X100)

Transfer Info:
Cassette Master (Nakamichi CR-7A) > Tascam DA-3000 (DSF 1-bit/5.8 MHz) >
KORG AudioGate 4 > Samplitude Pro X3 Suite > FLAC/24
(1 Disc FLAC)

All Transfers and Mastering By Charlie Miller
[email protected]
December 5, 2017

Notes:
-- Two sets of masters were used to make this show complete

Set 1:

01 - Cold Rain And Snow >
02 - Wang Dang Doodle
03 - Lazy River Road
04 - Queen Jane Approximately
05 - Ramble On Rose
06 - Black Throated Wind
07 - Liberty

Set 2:
08 - Scarlet Begonias >
09 - Fire On The Mountain
10 - Way To Go Home
11 - Corrina >
12 - Uncle John's Band >
13 - Drums >
14 - Space >
15 - I Need A Miracle >
16 - Standing On The Moon >
17 - Sugar Magnolia

Encore:
18 - I Fought The Law


SHNTOOL OUTPUT:
    length     expanded size    cdr  WAVE problems  fmt   ratio  filename
     6:08.299     212140010 B   cxx   --   ---xx   flac  0.6684  01 Cold Rain And Snow.flac
     6:28.552     223805876 B   cxx   --   ---xx   flac  0.6551  02 Wang Dang Doodle.flac
     8:06.808     280401488 B   cxx   --   ---xx   flac  0.6627  03 Lazy River Road.flac
     8:17.317     286454726 B   cxx   --   ---xx   flac  0.6493  04 Queen Jane Approximately.flac
     7:50.656     271097804 B   cxx   --   ---xx   flac  0.6552  05 Ramble On Rose.flac
     7:05.116     244866590 B   cxx   --   ---xx   flac  0.6547  06 Black Throated Wind.flac
     6:43.419     232369154 B   cxx   --   ---xx   flac  0.6564  07 Liberty.flac
     6:48.567     235334780 B   cxx   --   ---xx   flac  0.6644  08 Scarlet Begonias.flac
    15:44.845     544230746 B   cxx   --   ---xx   flac  0.6513  09 Fire On The Mountain.flac
     6:43.018     232138436 B   cxx   --   ---xx   flac  0.6688  10 Way To Go Home.flac
     9:43.481     336085118 B   cxx   --   ---xx   flac  0.6675  11 Corrina.flac
    11:59.707     414551426 B   cxx   --   ---xx   flac  0.6560  12 Uncle John's Band.flac
    10:33.392     364833746 B   cxx   --   ---xx   flac  0.6358  13 Drums.flac
     9:30.166     328415732 B   cxx   --   ---xx   flac  0.6262  14 Space.flac
     4:34.736     158248172 B   cxx   --   ---xx   flac  0.6695  15 I Need A Miracle.flac
     8:55.752     308593298 B   cxx   --   ---xx   flac  0.6604  16 Standing On The Moon.flac
     9:23.507     324580250 B   cxx   --   ---xx   flac  0.6686  17 Sugar Magnolia.flac
     3:03.762     105846830 B   cxx   --   ---xx   flac  0.6732  18 I Fought The Law.flac
   147:41.100    5103994182 B                            0.6561  (18 files)


Show Checksums
flac-md5
08e70f9758b09df9ea1f5e1cfa96d8ca *01 Cold Rain And Snow.flac
379dc268abf7d9399c7c2bf96e955943 *02 Wang Dang Doodle.flac
e9dcbddf2ed313d045cd4d3881ed11ae *03 Lazy River Road.flac
d5ad396d65e5f4fc55d541efaaecaa5b *04 Queen Jane Approximately.flac
eb5cdd323d53c75ff0f63aae5b43c1b0 *05 Ramble On Rose.flac
e48d6fb19aae2d2e55334527d8730a8e *06 Black Throated Wind.flac
fc0929ad71c86f7c0d892eb7f76c8d7e *07 Liberty.flac
8877e24060bd70bf746d5e2cfcf5499a *08 Scarlet Begonias.flac
cdc1cc7c82fcbe7846ff59299da22bb0 *09 Fire On The Mountain.flac
792c4149c3d1692533b8acc45812136b *10 Way To Go Home.flac
bbc13be26a5b0088aa0f6b0b6d7382c0 *11 Corrina.flac
6efd9b48288a6a36abcca525d6f37ce9 *12 Uncle John's Band.flac
4c0978142597243685f5fccfd0dd3f4c *13 Drums.flac
476bf8ba1a56f32fe379287eb6867de6 *14 Space.flac
43318e0664158f665bcf06a4325de7c0 *15 I Need A Miracle.flac
ff60b3681b26667ce38490748b9718e7 *16 Standing On The Moon.flac
bf812658921fd1a6ef6f320f6707fa90 *17 Sugar Magnolia.flac
a2745a3af9f35c4f3b7a89b96e6e87b9 *18 I Fought The Law.flac
ffp
01 Cold Rain And Snow.flac:a277d2631a975e049f12ff4ae18c6bae
02 Wang Dang Doodle.flac:4e028360ae1040430268ae168ef354ee
03 Lazy River Road.flac:fc49dbcd381ccc7325426d9e83efbf8b
04 Queen Jane Approximately.flac:c1bec8f23dc6d782f4ba55fad00219b1
05 Ramble On Rose.flac:3c077a1c76060f78bbd2bd6817b7c75d
06 Black Throated Wind.flac:6af12ff3e91686ea5ab105a8f4be53e2
07 Liberty.flac:44aef5a1e57ee8f2d306b282ff424f9d
08 Scarlet Begonias.flac:d1a1ccd98c513f310c2ff2cbaf62a097
09 Fire On The Mountain.flac:e95061113e8d5adeb18b4fe12a87a94d
10 Way To Go Home.flac:1f9dc4eeb7c5c8fe8084ad9e37f2bcd9
11 Corrina.flac:a37c87a55dfc1356eb7d369cf4fc0d9b
12 Uncle John's Band.flac:014dbee479704d3c5f8ea1613690da96
13 Drums.flac:780c062e1dfe999f07f7a373319a3d71
14 Space.flac:e49df6dbbd468ec6195f4f2ace7da1fb
15 I Need A Miracle.flac:ecd6f240dbf7ec622b9c39b8437e1380
16 Standing On The Moon.flac:7a0f86b64936d5fc1e43b9a56cf1818c
17 Sugar Magnolia.flac:9955b49effe4d428a7a851455a100256
18 I Fought The Law.flac:d67f5c3f590224aae398bdfdc19fb4bb

Comments
Add Comment
Other Sources (comments)
A : ? > DAT > CDR > EAC >... (0) flac16; Sennheiser... (0) flac16; Recording... (0) flac16/48kHz;... (0) flac16; Recording... (0) flac16/48kHz; Master... (0)
Date User Comment