Browse Collections Artists Sources   Search Dates

Add Show    List Management    Help


Grateful Dead 10/16/89
Meadowlands Arena, East Rutherford, NJ
Comments Add Comment    Source Collectors    Add to Collection    Add to Want List    History
Source # 140163 Other Sources
Entered by Gary Field
Checksums ffp , flac-md5
Disc Counts 0 / 0
Media Size
Date Circulated
Date Added
12/09/2017
12/09/2017
Source Summary flac24; Recording Info: Ultra Matrix SBD > Cassette Master (TDK MA-XG90); Transfer Info: Cassette Master (Nakamichi CR-7A) > Tascam DA-3000 (DSF 1-bit/5.8 MHz) > KORG AudioGate 4 > Samplitude Pro X3 Suite > FLAC/24; All Transfers and Mastering By Charlie Miller 
  Archive
Source Information - Download Text | Download Zip
Grateful Dead - October 16, 1989
Meadowlands Arena - East Rutherford, NJ

Recording Info:
Ultra Matrix SBD > Cassette Master (TDK MA-XG90)

Transfer Info:
Cassette Master (Nakamichi CR-7A) > Tascam DA-3000 (DSF 1-bit/5.8 MHz) >
KORG AudioGate 4 > Samplitude Pro X3 Suite > FLAC/24
(1 Disc FLAC)

All Transfers and Mastering By Charlie Miller
[email protected]
December 7, 2017

Notes:
-- Two sets of masters were used to make this show complete

Set 1:
01 - Tuning
02 - Picasso Moon >
03 - Mississippi Half-Step Uptown Toodeloo >
04 - Feel Like A Stranger
05 - Never Trust A Woman
06 - Built To Last
07 - Stuck Inside Of Mobile With The Memphis Blues Again
08 - Let It Grow >
09 - Deal

Set 2:
10 - Tuning
11 - Dark Star >
12 - Playing In The Band >
13 - Uncle John's Band >
14 - Playing In The Band Jam >
15 - Drums >
16 - Space >
17 - I Will Take You Home >
18 - I Need A Miracle >
19 - Dark Star >
20 - Attics Of My Life >
21 - Playing In The Band

Encore:
22 - Encore Break
23 - And We Bid You Goodnight


SHNTOOL OUTPUT:
    length     expanded size    cdr  WAVE problems  fmt   ratio  filename
     1:08.097      39223670 B   cxx   --   ---xx   flac  0.6454  01 Tuning.flac
     6:48.957     235558994 B   cxx   --   ---xx   flac  0.6940  02 Picasso Moon.flac
     6:43.245     232269188 B   cxx   --   ---xx   flac  0.6763  03 Mississippi Half-Step Uptown Toodeloo.flac
     7:34.663     261886184 B   cxx   --   ---xx   flac  0.6728  04 Feel Like A Stranger.flac
     9:17.326     321019568 B   cxx   --   ---xx   flac  0.6592  05 Never Trust A Woman.flac
     5:26.241     187915010 B   cxx   --   ---xx   flac  0.6539  06 Built To Last.flac
    11:26.148     395221076 B   cxx   --   ---xx   flac  0.6672  07 Stuck Inside Of Mobile With The Memphis Blues Again.flac
    11:58.358     413774090 B   cxx   --   ---xx   flac  0.6752  08 Let It Grow.flac
     8:44.561     302147330 B   cxx   --   ---xx   flac  0.6781  09 Deal.flac
     0:47.970      27630956 B   cxx   --   ---xx   flac  0.6482  10 Tuning.flac
    11:42.347     404551784 B   cxx   --   ---xx   flac  0.6866  11 Dark Star.flac
     8:08.364     281297606 B   cxx   --   ---xx   flac  0.7038  12 Playing In The Band.flac
     9:37.348     332552516 B   cxx   --   ---xx   flac  0.6866  13 Uncle John's Band.flac
     9:20.419     322801184 B   cxx   --   ---xx   flac  0.6875  14 Playing In The Band Jam.flac
     6:12.174     214372160 B   cxx   --   ---xx   flac  0.6400  15 Drums.flac
     6:15.924     216532496 B   cxx   --   ---xx   flac  0.6568  16 Space.flac
     4:26.934     153753914 B   cxx   --   ---xx   flac  0.7005  17 I Will Take You Home.flac
     4:05.605     141468602 B   cxx   --   ---xx   flac  0.7086  18 I Need A Miracle.flac
     5:25.031     187217942 B   cxx   --   ---xx   flac  0.7097  19 Dark Star.flac
     4:54.371     169557818 B   cxx   --   ---xx   flac  0.6965  20 Attics Of My Life.flac
     3:23.273     117085430 B   cxx   --   ---xx   flac  0.6952  21 Playing In The Band.flac
     1:50.012      63367226 B   cxx   --   ---xx   flac  0.6821  22 Encore Break.flac
     2:50.727      98338556 B   cxx   --   ---xx   flac  0.6974  23 And We Bid You Goodnight.flac
   148:08.094    5119543300 B                            0.6797  (23 files)




Show Checksums
ffp
01 Tuning.flac:1efe8a6f1a801ee30829436c8e3c168b
02 Picasso Moon.flac:b2e99ed882e5d73cbfceaf6aaca9414a
03 Mississippi Half-Step Uptown Toodeloo.flac:63415089805d684e510a8068d999ebaa
04 Feel Like A Stranger.flac:5cabab1a46cce1a4fb0e59c69216daba
05 Never Trust A Woman.flac:5d7b5a38f347413e55a1d7a312d3ab3f
06 Built To Last.flac:760187b94dd331a9c2da941aba03d571
07 Stuck Inside Of Mobile With The Memphis Blues Again.flac:b502c7fff7a4f1c6b412a20e2882f24a
08 Let It Grow.flac:a46ee4e29985e35cc721ccf7de0ca2f7
09 Deal.flac:866e3184f37b972950fc90db4ba1de3d
10 Tuning.flac:e602cb8e6541233c9562bd18e3c07697
11 Dark Star.flac:3dea674927705d241e9d7b051d74965d
12 Playing In The Band.flac:541978fe7300df0942d473b9633c4961
13 Uncle John's Band.flac:ebab88bdc0e209c6baf294fa8a9d242c
14 Playing In The Band Jam.flac:f005b364af580a8a4a7900c6a2734dcb
15 Drums.flac:13d06d6752e4dbc2ae27211557b80f10
16 Space.flac:5c9efd82a99e308566ab1fc1ce77407b
17 I Will Take You Home.flac:3de7c63d59f2156669c6e829712eed64
18 I Need A Miracle.flac:3ec7d4af76e894d1e095154ac7527790
19 Dark Star.flac:359f64792458b6aef4895edbec1d3e31
20 Attics Of My Life.flac:8065f64fdc3b04243f8c602796720d66
21 Playing In The Band.flac:efc6cedd7bd6a953c7dab729bb873699
22 Encore Break.flac:cd1635ffa6a691aa9128a124b406ee3c
23 And We Bid You Goodnight.flac:9607d7b8f307e1777ee7c409954b9292
flac-md5
3419e416ff69508cb3a0c8855d19d96c *01 Tuning.flac
b554d1e8da8a58a7ede32cc1d9a9abb8 *02 Picasso Moon.flac
2991325870ccfe5535a0aeb9b8bbb54c *03 Mississippi Half-Step Uptown Toodeloo.flac
bb14bfdc27dd03beca8e3dd89e97d430 *04 Feel Like A Stranger.flac
c3c4db1a3e992fce934fd8208c7af041 *05 Never Trust A Woman.flac
b2e1cbb04fe1505781e6a09c6bcc2d7c *06 Built To Last.flac
f121da7fb16c1a3a697e858a40ec4b65 *07 Stuck Inside Of Mobile With The Memphis Blues Again.flac
7beba4b0e2b3dde5d07e69802cd8f615 *08 Let It Grow.flac
5f2e2e9f2cdeaf9489cfe7716c6dd8e9 *09 Deal.flac
b4d2338738fb90f32060307daf11cfad *10 Tuning.flac
d8413eefe14d9710727e20a6b6d4d48a *11 Dark Star.flac
ca23e65040088901c1635a564f7ddde2 *12 Playing In The Band.flac
16445a9205f127363b69bf20abfb0dc6 *13 Uncle John's Band.flac
baf1fc5d970baa9fb68e8b8960277512 *14 Playing In The Band Jam.flac
2736aa1155b4e3de02c2648a21996864 *15 Drums.flac
3f44794ae15c2baefe8171eebe392035 *16 Space.flac
04165e17856af94e7431caae39d6198b *17 I Will Take You Home.flac
7276831c835cda45f17e4ba9cf627a04 *18 I Need A Miracle.flac
ee99719b5515c1d3e147927f525f0c43 *19 Dark Star.flac
cbb5b031944dd32ce1bc1b8123cfe77a *20 Attics Of My Life.flac
68cf50168d865c1da6b8bfbe252bee43 *21 Playing In The Band.flac
bcda2e5332ea5eef4d10b6113adae918 *22 Encore Break.flac
a42742ee0a990b4acbc3fab4957a3372 *23 And We Bid You Goodnight.flac

Comments
Add Comment
Other Sources (comments)
source update: DSBD> DAT>... (9) unknown audience recording... (0) flac16; Set 2 Only -... (1) flac16; matrix of... (0) flac16/48kHz;... (0) flac16; Source:... (0) flac16; Taper: M.... (0) flac24; Master... (0) flac16; Master... (0) flac16; Recording... (0) flac16/48kHz; Source... (0)
Date User Comment