Browse Collections Artists Sources   Search Dates

Add Show    List Management    Help


Bob Weir & Rob Wasserman 05/12/90
Warfield, San Francisco, CA
Comments Add Comment    Source Collectors    Add to Collection    Add to Want List    History
Source # 140177 Other Sources
Entered by Todd
Checksums bw+rw1990-05-12.md5 , bw+rw1990-05-12.ffp
Disc Counts 0 / 0
Media Size
Date Circulated
Date Added
12/06/2017
12/09/2017
Source Summary flac24 SBD > Cassette Master (TDK SA-X90) > Tascam DA-3000 (DSF 1-bit/5.8 MHz) > KORG AudioGate 4 > Samplitude Pro X3 Suite > flac 
Source Information - Download Text | Download Zip
Bob Weir & Rob Wasserman - May 12, 1990
Warfield Theatre - San Francisco, CA

Recording Info:
SBD > Cassette Master (TDK SA-X90)

Transfer Info:
Cassette Master (Nakamichi CR-7A) > Tascam DA-3000 (DSF 1-bit/5.8 MHz) >
KORG AudioGate 4 > Samplitude Pro X3 Suite > FLAC/24
(1 Disc FLAC)

All Transfers and Mastering By Charlie Miller
[email protected]
December 6, 2017

Notes:
-- Clarence Clemons plays Sax on Youngblood thru Easy To Slip and Throwing Stones

Set 1:
01 - Walkin' Blues
02 - Twilight Time >
03 - Blackbird
04 - K.C. Moan
05 - Youngblood
06 - Fever >
07 - Eternity
08 - The Winners >
09 - Easy To Slip

Set 2:
10 - When I Paint My Masterpiece
11 - Artificial Flowers
12 - This Time Forever >
13 - Shade Of Grey >
14 - Victim Or The Crime >
15 - Bass Solo >
16 - Heaven Help The Fool >
17 - Throwing Stones

Encore:
18 - Misty


SHNTOOL OUTPUT:
    length     expanded size    cdr  WAVE problems  fmt   ratio  filename
     4:41.349     162057092 B   cxx   --   ---xx   flac  0.6368  01 Walkin' Blues.flac
     2:52.664      99454730 B   cxx   --   ---xx   flac  0.6538  02 Twilight Time.flac
     2:46.489      95897528 B   cxx   --   ---xx   flac  0.6579  03 Blackbird.flac
     3:11.474     110288870 B   cxx   --   ---xx   flac  0.6556  04 KC Moan.flac
     4:09.007     143428232 B   cxx   --   ---xx   flac  0.6618  05 Youngblood.flac
     4:10.748     144430604 B   cxx   --   ---xx   flac  0.6262  06 Fever.flac
     3:18.226     114178004 B   cxx   --   ---xx   flac  0.6398  07 Eternity.flac
     4:19.332     149375204 B   cxx   --   ---xx   flac  0.6632  08 The Winners.flac
     6:39.369     230036516 B   cxx   --   ---xx   flac  0.6407  09 Easy To Slip.flac
     4:14.462     146570192 B   cxx   --   ---xx   flac  0.6490  10 When I Paint My Masterpiece.flac
     4:20.801     150221330 B   cxx   --   ---xx   flac  0.6552  11 Artificial Flowers.flac
     3:52.556     133952234 B   cxx   --   ---xx   flac  0.6192  12 This Time Forever.flac
     4:30.223     155648594 B   cxx   --   ---xx   flac  0.6463  13 Shade Of Grey.flac
     5:18.295     183337856 B   cxx   --   ---xx   flac  0.6586  14 Victim Or The Crime.flac
     5:18.889     183680222 B   cxx   --   ---xx   flac  0.6150  15 Bass Solo.flac
     6:30.204     224757446 B   cxx   --   ---xx   flac  0.6449  16 Heaven Help The Fool.flac
     8:14.349     284745086 B   cxx   --   ---xx   flac  0.6559  17 Throwing Stones.flac
     3:22.731     116773286 B   cxx   --   ---xx   flac  0.6743  18 Misty.flac
    81:51.167    2828833026 B                            0.6468  (18 files)

Show Checksums
bw+rw1990-05-12.md5
bd5ff69b3cd486764f36a1fe58e2ba6d *01 Walkin' Blues.flac
b2f73a50335d6cadbcab86a10482f058 *02 Twilight Time.flac
9d9bfdb450cc7f6a6a5e22cd7113b49e *03 Blackbird.flac
629f8dea5b56cb20810c1e02072dee88 *04 KC Moan.flac
f439dfd1cde80ae3463ba84d7c54c5e1 *05 Youngblood.flac
7d6c23b74fb06bab01c4fba2466420d7 *06 Fever.flac
78bd8f7b16767d5cb64cefe5b95d1692 *07 Eternity.flac
042c209e6f60aedb8d25e449b98bdae0 *08 The Winners.flac
c35f49454dfb382332dfa7fb617d6b36 *09 Easy To Slip.flac
b917a06434bf01b1ac6e9993b799f537 *10 When I Paint My Masterpiece.flac
aca4cebb63bd13d08831fc971af1da70 *11 Artificial Flowers.flac
e8f889677bba561537141c8b6a09af0b *12 This Time Forever.flac
c71803d25d13492ad0d7875843445534 *13 Shade Of Grey.flac
795413e4a9a76e1030eb5ab9c6871e3e *14 Victim Or The Crime.flac
33d9402c63b7d5feadc228095f3ff679 *15 Bass Solo.flac
544d2de1ae8bf2b0c94fa762050e5e83 *16 Heaven Help The Fool.flac
629cee939cda5d5d498174c77a8f032c *17 Throwing Stones.flac
061ba46f724af8a8efda5da74db0e56a *18 Misty.flac
bw+rw1990-05-12.ffp
01 Walkin' Blues.flac:216802c7ee252428c34c748faa19b4e2
02 Twilight Time.flac:722188b80d74b9468d5910c9e38be3ad
03 Blackbird.flac:c7c5bbef46eb069b1d145c0046e5067d
04 KC Moan.flac:1c4911ca3a02b0b890e31aa3f52bca5d
05 Youngblood.flac:280ecc852920266c8b1fc85583d02ccc
06 Fever.flac:a67be7ff09a70ea0fb247909590c04f3
07 Eternity.flac:af6c27f3c8e7564ddf6008ca7b6b6c56
08 The Winners.flac:56d47dacbf78a31f5b909a3764ad99ef
09 Easy To Slip.flac:a81094c2478145d95178df71f663c349
10 When I Paint My Masterpiece.flac:3bb84e7e1cff8ef80601a2529abb01e8
11 Artificial Flowers.flac:204451d933196cbf8db62a52d04a333f
12 This Time Forever.flac:2231c22074d48c70fadac471d91632f2
13 Shade Of Grey.flac:7af3f67164aad9d7859c0455c2d8c199
14 Victim Or The Crime.flac:c15c0300b64acb7b62af7d629eb609ba
15 Bass Solo.flac:7d8c77978772084de87c6d2b0e3f8719
16 Heaven Help The Fool.flac:f4f8b871349e793955fda7cbefb088b5
17 Throwing Stones.flac:38869a0af7ddf220ca4b43c75bc419a7
18 Misty.flac:5c6bd664e47d1dbdd2ec4b61cca2dace

Comments
Add Comment
Other Sources (comments)
flac16 SBD >... (0)
Date User Comment