Browse Collections Artists Sources   Search Dates

Add Show    List Management    Help


Grateful Dead 12/09/89
Great Western LA Forum, Inglewood, CA
Comments Add Comment    Source Collectors    Add to Collection    Add to Want List    History
Source # 140180 Other Sources
Entered by Matt Vernon
Checksums orig-ffp , ffp , flac-md5
Disc Counts 0 / 0
Media Size
Date Circulated
Date Added
12/10/2017
12/10/2017
Source Summary flac24; Recording Info: Ultra Matrix SBD > Cassette Master (TDK MA-XG90); Transfer Info: Cassette Master (Nakamichi CR-7A) > Tascam DA-3000 (DSF 1-bit/5.8 MHz) > KORG AudioGate 4 > Adobe Audition CC2015 > Samplitude Pro X3 Suite > FLAC/24; All Transfers and Mastering By Charlie Miller; the original source had errors on the last three tracks; please don't circulate that version 
  Archive
Source Information - Download Text | Download Zip
Grateful Dead - December 9, 1989
Great Western Forum - Inglewood, CA

Recording Info:
Ultra Matrix SBD > Cassette Master (TDK MA-XG90)

Transfer Info:
Cassette Master (Nakamichi CR-7A) > Tascam DA-3000 (DSF 1-bit/5.8 MHz) >
KORG AudioGate 4 > Adobe Audition CC2015 > Samplitude Pro X3 Suite > FLAC/24
(1 Disc FLAC)

All Transfers and Mastering By Charlie Miller
[email protected]
December 10, 2017

Notes:
-- This is a fixed version of shnid=140180 (last 3 tracks corrected)
-- Two sets of masters were used to make this show complete

Set 1:
01 - Tuning
02 - Touch Of Gray
03 - New Minglewood Blues
04 - Row Jimmy
05 - Mexicali Blues >
06 - Cumberland Blues
07 - Bird Song
08 - One More Saturday Night

Set 2:
09 - Tuning
10 - Foolish Heart >
11 - Playing In The Band >
12 - Crazy Fingers >
13 - Uncle John's Band
14 - Playing In The Band >
15 - Drums >
16 - Space >
17 - Dear Mr. Fantasy >
18 - Hey Jude >
19 - Turn On Your Lovelight

Encore:
20 - Encore Break
21 - Knockin' On Heaven's Door


SHNTOOL OUTPUT:
    length     expanded size    cdr  WAVE problems  fmt   ratio  filename
     0:56.111      32319770 B   cxx   --   ---xx   flac  0.6164  01 Tuning.flac
     7:24.230     255876332 B   cxx   --   ---xx   flac  0.6639  02 Touch Of Grey.flac
     9:31.125     328968272 B   cxx   --   ---xx   flac  0.6612  03 New Minglewood Blues.flac
    13:16.524     458797982 B   cxx   --   ---xx   flac  0.6579  04 Row Jimmy.flac
     4:18.877     149113118 B   cxx   --   ---xx   flac  0.6818  05 Mexicali Blues.flac
     5:54.907     204426218 B   cxx   --   ---xx   flac  0.6615  06 Cumberland Blues.flac
    13:30.654     466936574 B   cxx   --   ---xx   flac  0.6639  07 Bird Song.flac
     5:22.678     185862680 B   cxx   --   ---xx   flac  0.6738  08 One More Saturday Night.flac
     1:35.090      54771656 B   cxx   --   ---xx   flac  0.6320  09 Tuning.flac
     9:24.298     325035422 B   cxx   --   ---xx   flac  0.6819  10 Foolish Heart.flac
     8:59.223     310592750 B   cxx   --   ---xx   flac  0.6743  11 Playing In The Band.flac
     8:34.328     296252726 B   cxx   --   ---xx   flac  0.6665  12 Crazy Fingers.flac
    10:16.516     355113440 B   cxx   --   ---xx   flac  0.6769  13 Uncle John's Band.flac
     3:28.026     119822924 B   cxx   --   ---xx   flac  0.6699  14 Playing In The Band.flac
     8:09.538     281974148 B   cxx   --   ---xx   flac  0.6355  15 Drums.flac
    13:01.053     449886314 B   cxx   --   ---xx   flac  0.6457  16 Space.flac
     5:28.812     189395486 B   cxx   --   ---xx   flac  0.6666  17 Dear Mr Fantasy.flac
     2:32.069      87592046 B   cxx   --   ---xx   flac  0.6787  18 Hey Jude.flac
     6:34.972     227504078 B   cxx   --   ---xx   flac  0.6685  19 Turn On Your Lovelight.flac
     2:53.043      99672986 B   cxx   --   ---xx   flac  0.6326  20 Encore Break.flac
     8:02.331     277822820 B   cxx   --   ---xx   flac  0.6646  21 Knockin' On Heaven's Door.flac
   149:14.404    5157737742 B                            0.6631  (21 files)


Show Checksums
orig-ffp
01 Tuning.flac:eff4bcd7e3efc0e4b33ffa10d699205b
02 Touch Of Grey.flac:630029992d531a48816693f914931acd
03 New Minglewood Blues.flac:57311262d62bff5e5f7f8ad0a184643c
04 Row Jimmy.flac:a00a69a3fbf2520263347b0cd2aa3ae2
05 Mexicali Blues.flac:49d7244fd727c46067881d44ff91c00b
06 Cumberland Blues.flac:aec0ccab8565ac69fd91c4b969c75c88
07 Bird Song.flac:4edceb7af27521e2937bf82050a0aaf8
08 One More Saturday Night.flac:fe941c0445e1c58e85696b6558ff1145
09 Tuning.flac:49a9f5ca5a7a51e372a0bf0067fc30e2
10 Foolish Heart.flac:3c6eba2a9d07ed0f519872e8795e300c
11 Playing In The Band.flac:d89ab258fd61d68ae28ef832177133f8
12 Crazy Fingers.flac:0a97fa5954d555199d66a891858f4560
13 Uncle John's Band.flac:96c85df392dee82852dc7aa03697face
14 Playing In The Band.flac:7eb006072470119ddbe5f88eb2301288
15 Drums.flac:cd14cb8952472ba11d976716366df352
16 Space.flac:2197e3aa4820f068fef1812ffcefcd58
17 Dear Mr Fantasy.flac:6f2fa38fe62300fcab3693ff840833d2
18 Hey Jude.flac:00d71a65fe69dc053192f3f8def74bd4
19 Turn On Your Lovelight.flac:4f26b64e7085bd87b0abb26a38e80089
20 Encore Break.flac:26bdedf89956e51f2cede591b0df84a1
21 Knockin' On Heaven's Door.flac:310d65231676368d2d1352c6ca346e1c
ffp
01 Tuning.flac:eff4bcd7e3efc0e4b33ffa10d699205b
02 Touch Of Grey.flac:630029992d531a48816693f914931acd
03 New Minglewood Blues.flac:57311262d62bff5e5f7f8ad0a184643c
04 Row Jimmy.flac:a00a69a3fbf2520263347b0cd2aa3ae2
05 Mexicali Blues.flac:49d7244fd727c46067881d44ff91c00b
06 Cumberland Blues.flac:aec0ccab8565ac69fd91c4b969c75c88
07 Bird Song.flac:4edceb7af27521e2937bf82050a0aaf8
08 One More Saturday Night.flac:fe941c0445e1c58e85696b6558ff1145
09 Tuning.flac:49a9f5ca5a7a51e372a0bf0067fc30e2
10 Foolish Heart.flac:3c6eba2a9d07ed0f519872e8795e300c
11 Playing In The Band.flac:d89ab258fd61d68ae28ef832177133f8
12 Crazy Fingers.flac:0a97fa5954d555199d66a891858f4560
13 Uncle John's Band.flac:96c85df392dee82852dc7aa03697face
14 Playing In The Band.flac:7eb006072470119ddbe5f88eb2301288
15 Drums.flac:cd14cb8952472ba11d976716366df352
16 Space.flac:2197e3aa4820f068fef1812ffcefcd58
17 Dear Mr Fantasy.flac:6f2fa38fe62300fcab3693ff840833d2
18 Hey Jude.flac:00d71a65fe69dc053192f3f8def74bd4
19 Turn On Your Lovelight.flac:d7c5289c4cf2aac2c200661ce430577a
20 Encore Break.flac:75a54ab2bfec7b5369a873c0c21e1b6b
21 Knockin' On Heaven's Door.flac:e55688600f632f9f129455050833856d
flac-md5
7f2b52818d6bfe3a29400bfab0ecbb9f *01 Tuning.flac
f89fcde2adb42a232837f9c7eeffdc63 *02 Touch Of Grey.flac
b53b9f695ee4e484e7ba788396b2d6bc *03 New Minglewood Blues.flac
60c6da0e7a2f06df753e57bdb0547180 *04 Row Jimmy.flac
1d41929300c50eb6ca4e4af1c37a5dc7 *05 Mexicali Blues.flac
a4a50ed6b622337ddf74403f62242cb9 *06 Cumberland Blues.flac
8046faf1e044c7c3a947b4fbf77597ce *07 Bird Song.flac
bf91261eec9b3cd0ddc84afdc4f29ab2 *08 One More Saturday Night.flac
06cce204bb1bb948b2d5af785272d55f *09 Tuning.flac
a8490bd5f840d67b928c7b1a53189aa4 *10 Foolish Heart.flac
811cb4ce1ad7bf0a919bcafc7c41d4b0 *11 Playing In The Band.flac
7b4ddd355a6efa4d1b3362078be7a0a7 *12 Crazy Fingers.flac
d64a894cb08831111c0c5b7d553c8c51 *13 Uncle John's Band.flac
e50ad264f356af11af0a181f25899f8d *14 Playing In The Band.flac
19d513f8591e0f13a9249d5350e7ab81 *15 Drums.flac
4d45b761e8c15ed8a054ef2645872387 *16 Space.flac
0be1dbfa6682198c73f3fcddbd5055cc *17 Dear Mr Fantasy.flac
c533f74f7d167e420b6f062d16ff2574 *18 Hey Jude.flac
26f1f14a390e96bfa37b96aa5690e841 *19 Turn On Your Lovelight.flac
0ea9905fe23ff400dcc7c7976380f4f8 *20 Encore Break.flac
dd9e0a0f1a687f89fb346ed149dbbf96 *21 Knockin' On Heaven's Door.flac

Comments
Add Comment
Other Sources (comments)
SBD > DAT > CDR > WAV >... (0) Source: SBD > DAT > CDR >... (0) flac24; Ambient... (0) flac16; Ambient... (0) flac16; Source:... (0) flac16/48 ... (0) flac16; Recording... (0) flac16/48kHz;... (0)
Date User Comment
12/10/2017 mvernon Recording Info & Transfer modified per instructions from Scott.
12/10/2017 mvernon argh - the change in my prior comment has been reverted - it was meant for a different source
12/10/2017 [email protected] There was a mastering mistake during lovelight. I'll post the fixed version.
12/11/2017 Wharfrat73 Updated checksums and info file with the fixed version
12/14/2017 [email protected] Some File lengths are different on fixed version