Browse Collections Artists Sources   Search Dates

Add Show    List Management    Help


Grateful Dead 12/09/89
Great Western LA Forum, Inglewood, CA
Comments Add Comment    Source Collectors    Add to Collection    Add to Want List    History
Source # 140198 Other Sources
Entered by Matt Vernon
Checksums ffp , flac-md5
Disc Counts 0 / 0
Media Size
Date Circulated
Date Added

12/11/2017
Source Summary flac16/48 Recording Info: UltraMatrix Master Soundbonard Dat 16/48 > Dat clone 16/48 directly from Dat master. Transfer Info: Dat 16/48 (Sony PCM-R500) > Sound Devices 744T 16/48 > Adobe Audition 3.0 > TLH flac1648. Transfer by Charlie Miller. Mastered by Scott Clugston 
  Archive
Source Information - Download Text | Download Zip
Grateful Dead
Great Western Forum
Inglewood, CA
Saturday December 9, 1989

Recording Info:
UltraMatrix Master Soundbonard Dat 16/48 > Dat clone 16/48 directly from Dat master

Transfer Info:
Dat 16/48 (Sony PCM-R500) > Sound Devices 744T 16/48 > Adobe Audition 3.0 > TLH flac1648

Notes:
- Thanks to Charlie Miller for the Dat clone
- Thanks to Charlie Miller for the transfer
- Thanks to Charlie Miller for the Ultramatrix Master Soundboard Cassette source which provides the "Tuning" and first 0:04 of "Touch Of Grey" (1:05 total)

Mastered by Scott Clugston
12/9/17

Set 1:
01 - Tuning
02 - Touch Of Grey
03 - New Minglewood Blues
04 - Row Jimmy
05 - Mexicali Blues >
06 - Cumberland Blues
07 - Bird Song
08 - One More Saturday Night

Set 2:
09 - Tuning
10 - Foolish Heart >
11 - Playing In The Band >
12 - Crazy Fingers >
13 - Uncle John's Band
14 - Playing In The Band >
15 - Drums >
16 - Space >
17 - Dear Mr. Fantasy >
18 - Hey Jude >
19 - Turn On Your Lovelight
20 - Encore Break
21 - Knockin' On Heaven's Door



    length     expanded size    cdr  WAVE problems  fmt   ratio  filename
     0:58.800      11289644 B   cxx   --   ---xx   flac  0.4691  gd89-12-09 01 Tuning.flac
     7:39.453      88215084 B   cxx   --   ---xx   flac  0.5372  gd89-12-09 02 Touch Of Grey.flac
     9:10.733     105740844 B   cxx   --   ---xx   flac  0.5223  gd89-12-09 03 New Minglewood Blues.flac
    13:14.493     152542764 B   cxx   --   ---xx   flac  0.5049  gd89-12-09 04 Row Jimmy.flac
     4:20.880      50089004 B   cxx   --   ---xx   flac  0.5611  gd89-12-09 05 Mexicali Blues.flac
     6:02.493      69598764 B   cxx   --   ---xx   flac  0.5482  gd89-12-09 06 Cumberland Blues.flac
    13:21.733     153932844 B   cxx   --   ---xx   flac  0.5447  gd89-12-09 07 Bird Song.flac
     5:03.707      58311724 B   cxx   --   ---xx   flac  0.5762  gd89-12-09 08 One More Saturday Night.flac
     1:21.987      15741484 B   cxx   --   ---xx   flac  0.3907  gd89-12-09 09 Tuning.flac
     9:24.680     108418604 B   cxx   --   ---xx   flac  0.5757  gd89-12-09 10 Foolish Heart.flac
     9:00.293     103736364 B   cxx   --   ---xx   flac  0.5540  gd89-12-09 11 Playin' In The Band.flac
     8:34.267      98739244 B   cxx   --   ---xx   flac  0.5120  gd89-12-09 12 Crazy Fingers.flac
    10:16.413     118351404 B   cxx   --   ---xx   flac  0.5580  gd89-12-09 13 Uncle John's Band.flac
     3:45.240      43246124 B   cxx   --   ---xx   flac  0.5173  gd89-12-09 14 Playin' In The Band Reprise.flac
    10:28.640     120698924 B   cxx   --   ---xx   flac  0.4599  gd89-12-09 15 Drums.flac
    10:25.667     120128044 B   cxx   --   ---xx   flac  0.4153  gd89-12-09 16 Space.flac
     5:28.307      63034924 B   cxx   --   ---xx   flac  0.5144  gd89-12-09 17 Dear Mr. Fantasy.flac
     2:34.880      29737004 B   cxx   --   ---xx   flac  0.5497  gd89-12-09 18 Hey Jude.flac
     6:38.147      76444204 B   cxx   --   ---xx   flac  0.5239  gd89-12-09 19 Turn On Your Lovelight.flac
     3:01.973      34938924 B   cxx   --   ---xx   flac  0.4034  gd89-12-09 20 Encore Break.flac
     7:39.476      88219460 B   cxx   --   ---xx   flac  0.4923  gd89-12-09 21 Knockin' On Heaven's Door.flac
   148:32.263    1711155380 B                            0.5174  (21 files)

No errors occured.


Show Checksums
ffp
gd89-12-09 01 Tuning.flac:1d576de6f34e137f9271f7b237c48e21
gd89-12-09 02 Touch Of Grey.flac:b79f35fb1107d46aeebef8d8adb77a06
gd89-12-09 03 New Minglewood Blues.flac:7b4fd494a1d7e96a1695d5c4378faa4b
gd89-12-09 04 Row Jimmy.flac:f086353bfc62fe1c7be9c89a18afb424
gd89-12-09 05 Mexicali Blues.flac:b86da7fa1d3327b0b0a23c36cbe052a8
gd89-12-09 06 Cumberland Blues.flac:6ffc6b25555deed6efc62cdd1146865e
gd89-12-09 07 Bird Song.flac:02c4909fba7815b58719231763779317
gd89-12-09 08 One More Saturday Night.flac:cbd9fc50b56d63389340b58e7f6cfd0e
gd89-12-09 09 Tuning.flac:9cde08a3f5eec02930daca1e82e62900
gd89-12-09 10 Foolish Heart.flac:c0f1bed5dc09930abb17268c84e00411
gd89-12-09 11 Playin' In The Band.flac:3a26e1e2d09aea2912b62222da675add
gd89-12-09 12 Crazy Fingers.flac:d4616bdcfbba47fe2da7bd2e865020f8
gd89-12-09 13 Uncle John's Band.flac:c45e3a6aa0cddebfe2cd08290617cc94
gd89-12-09 14 Playin' In The Band Reprise.flac:0f7ee627b7d73690ffd76e9048b1141c
gd89-12-09 15 Drums.flac:95a489ea0dbdcb514ebd49110057172b
gd89-12-09 16 Space.flac:691faa734bd59cb210f451a79d68919a
gd89-12-09 17 Dear Mr. Fantasy.flac:4ba356b4c7c7dde329049363c814aeca
gd89-12-09 18 Hey Jude.flac:03e42d8dc50dfb8a8c8ef5aab8b00137
gd89-12-09 19 Turn On Your Lovelight.flac:b49910fe42c2e1b3f34b03777b256859
gd89-12-09 20 Encore Break.flac:c8d4a0278c2715fa0266cf46ec49681d
gd89-12-09 21 Knockin' On Heaven's Door.flac:f0a9b2e65521f7ffe7152ec7bb9c13b4
flac-md5
f71a0f2abfc7fd9738e5cb16b2e48df7 *gd89-12-09 01 Tuning.flac
1e260c392975c21cf9d8f51678b7eff3 *gd89-12-09 02 Touch Of Grey.flac
a0e5bc731feeb99e3f4575e6fead8be5 *gd89-12-09 03 New Minglewood Blues.flac
db3ebc2703eb1c2f30eb1e142372d071 *gd89-12-09 04 Row Jimmy.flac
4ea30c4b04b93f60e2be9e48b5f3af6b *gd89-12-09 05 Mexicali Blues.flac
fdeca5906fbd339853e9b5bccf4c8e07 *gd89-12-09 06 Cumberland Blues.flac
68b59083318310a8331869595b631a66 *gd89-12-09 07 Bird Song.flac
f933eec0e0ef0dde1570c043674a23a1 *gd89-12-09 08 One More Saturday Night.flac
cf4f4afb21477dc328706af44338a518 *gd89-12-09 09 Tuning.flac
b2808806566fa3075147214670fd78d7 *gd89-12-09 10 Foolish Heart.flac
bbd6640c90669712c7e73708fd195e11 *gd89-12-09 11 Playin' In The Band.flac
43c3bd7184f4215a6c7a8f95a5be4742 *gd89-12-09 12 Crazy Fingers.flac
4dd2196aa1d20f54d8af07707fa40c04 *gd89-12-09 13 Uncle John's Band.flac
88500e798f38f21e17c3c50cf5223c00 *gd89-12-09 14 Playin' In The Band Reprise.flac
7984527b1e5dd34542b2739f4143cfce *gd89-12-09 15 Drums.flac
b53b88d601b973d2e6fba190fed2c5dc *gd89-12-09 16 Space.flac
a6e54119c5a17e25da2dc45a242b2952 *gd89-12-09 17 Dear Mr. Fantasy.flac
e4f2b22a3860fdc17c69a86eed6964a0 *gd89-12-09 18 Hey Jude.flac
8e675eb89f40a079583e80e107e26eb2 *gd89-12-09 19 Turn On Your Lovelight.flac
9975cf819ad5e59b3a20d220bbd5f0dd *gd89-12-09 20 Encore Break.flac
d7689dad44cc5248816adb53d5fc336c *gd89-12-09 21 Knockin' On Heaven's Door.flac

Comments
Add Comment
Other Sources (comments)
SBD > DAT > CDR > WAV >... (0) Source: SBD > DAT > CDR >... (0) flac24; Ambient... (0) flac16; Ambient... (0) flac16; Source:... (0) flac24; Recording... (5) flac16; Recording... (0) flac16/48kHz;... (0)
Date User Comment