Browse Collections Artists Sources   Search Dates

Add Show    List Management    Help


Phish 08/14/96
Hershey Park Stadium, Hershey, PA
Comments Add Comment    Source Collectors    Add to Collection    Add to Want List    History
Source # 140201 Other Sources
Entered by Matt Vernon
Checksums ffp
Disc Counts 0 / 0
Media Size
Date Circulated
Date Added

12/11/2017
Source Summary flac16 44.1khz AUD>Sennheiser 441>sony d7 > fostex d5 > optical cable > zoltrix nightingale soundcard > cdwave > soundforge 4.5 xp (resample) > shn > flac(8). 
Source Information - Download Text | Download Zip
Phish 08-14-96
Hershey Park Stadium, Hershey, PA

AUD>Sennheiser 441>sony d7 >
fostex d5 > optical cable > zoltrix nightingale soundcard >
cdwave > soundforge 4.5 xp (resample) > shn > flac(8)

Set 1, disc 1
1. Wilson->
2. Down With Disease
3. Fee->
4. Poor Heart
5. Reba
6. The Mango Song
7. Gumbo
8. Stash
9. Hello My Baby

Set 2, disc 2
1. Runaway Jim
2. You Enjoy Myself
3. The Horse->
4. Silent in the Morning
5. Cars Trucks Buses
6. Tweezer
set 2 cont'd, disc 3
1. Theme From the Bottom,
2. HYHU-> Cracklin' Rosie > HYHU,
3. Sample In a Jar->
4. Tweezer Reprise
5. E: Julius

- - - - -
There might be a skip or 2 in YEM ~7:10 and 8:00 mark
- - - - —
    length     expanded size    cdr  WAVE problems  fmt   ratio  filename
     4:05.47       43328588 B   ---   --   ---xx   flac  0.5496  960814d1t01.flac
     4:37.21       48912236 B   ---   --   ---xx   flac  0.5506  960814d1t02.flac
    10:44.08      113620460 B   ---   --   ---xx   flac  0.5797  960814d1t03.flac
     5:56.56       62930156 B   ---   --   ---xx   flac  0.5192  960814d1t04.flac
     2:30.58       26596460 B   ---   --   ---xx   flac  0.5684  960814d1t05.flac
    14:19.31      151600556 B   ---   --   ---xx   flac  0.5300  960814d1t06.flac
     7:02.58       74577260 B   ---   --   ---xx   flac  0.5512  960814d1t07.flac
     5:25.64       57480572 B   ---   --   ---xx   flac  0.5333  960814d1t08.flac
    12:33.65      132982124 B   ---   --   ---xx   flac  0.5289  960814d1t09.flac
     1:33.51       16525196 B   ---   --   ---xx   flac  0.4466  960814d1t10.flac
    15:40.10      165839564 B   ---   --   ---xx   flac  0.5500  960814d2t01.flac
    22:01.59      233163212 B   ---   --   ---xx   flac  0.5180  960814d2t02.flac
     0:44.01        7763996 B   ---   --   ---xx   flac  0.4439  960814d2t03.flac
     5:09.30       54578204 B   ---   --   ---xx   flac  0.5219  960814d2t04.flac
     3:33.46       37681436 B   ---   --   ---xx   flac  0.5324  960814d2t05.flac
    19:40.58      208288460 B   ---   --   ---xx   flac  0.5402  960814d2t06.flac
     7:35.51       80381996 B   ---   --   ---xx   flac  0.5299  960814d3t01.flac
     5:37.73       59618540 B   ---   --   ---xx   flac  0.5100  960814d3t02.flac
     4:46.41       50546876 B   ---   --   ---xx   flac  0.5886  960814d3t03.flac
     3:31.18       37262780 B   ---   --   ---xx   flac  0.5715  960814d3t04.flac
     8:25.23       89136140 B   ---   --   ---xx   flac  0.5651  960814d3t05.flac
   165:36.44     1752814812 B                            0.5392  (21 files)



Show Checksums
ffp
960814d1t01.flac:4f6abb02310300546557ce7b48f3ccf0
960814d1t02.flac:48af8dde29eb3dd8828741df2e893ca8
960814d1t03.flac:2d5debd0c9e8fcdec6a5c382bd072f74
960814d1t04.flac:e12602106de26e745e12030ec54dfc60
960814d1t05.flac:5100468c44bc367f8f9645212ba91b02
960814d1t06.flac:e0589462e7bbe5d422e45178b65187ea
960814d1t07.flac:575376fea2204c9ee57cb262f7786580
960814d1t08.flac:29922b55c5b40859d4a52d0d993ac82b
960814d1t09.flac:b567676886c8a68b6c87432638ea390e
960814d1t10.flac:9b3830f9c20fb90e56ecae954e6e57d0
960814d2t01.flac:be3b056bd07a69301581e91fc98ce859
960814d2t02.flac:9e27b8c17ddf6131c2b63c09deaa2d1f
960814d2t03.flac:4d6e95657c5fa9b1be3fd5c3092fa210
960814d2t04.flac:f8e6d31fa40f05933b128972fe860169
960814d2t05.flac:b5cd85c983d8545de2cdb4e7348d2767
960814d2t06.flac:db6df43deb0cca3ccc20b69c40938f4a
960814d3t01.flac:d2e8ac3957216494520782fe56b2029e
960814d3t02.flac:1ddb51fda45fb1ae112d7ae03dd73df0
960814d3t03.flac:8d9c22f636d59940c535cfa29af6ca4d
960814d3t04.flac:6e077eef3f1bb11a8ac014915585e60f
960814d3t05.flac:5dd05bd60df0ab6a967ff2ab87927240

Comments
Add Comment
Other Sources (comments)
Nak300/cp1> SBM-1; Prodif... (0) Unknown source; Aiwa XD-001... (1) Schoeps CMC6/mk4 > Sonosax... (2) Nakamichi CM300's/CP4's >... (0) flac16; Schoeps... (0) flac16, 48kHz;... (0)
Date User Comment