Browse Collections Artists Sources   Search Dates

Add Show    List Management    Help


Bob Weir 07/10/88
Greek Theatre, Univ. of California, Berkeley, CA
Comments Add Comment    Source Collectors    Add to Collection    Add to Want List    History
Source # 140218 Other Sources
Entered by Todd
Checksums BobWeir1988-07-10..md5 , BobWeir1988-07-10..ffp
Disc Counts 0 / 0
Media Size Compressed: 257.84 MB (270360576 bytes)
Date Circulated
Date Added
12/12/2017
12/12/2017
Source Summary flac16 UltraMatrix SBD > Cassette Master (TDK MA-XG90) > Cassette Master (Nakamichi CR-7A) > Tascam DA-3000 (DSF 1-bit/5.8 MHz) > KORG AudioGate 4 > Samplitude Pro X3 Suite > FLAC/24 (1 Disc FLAC) 
Source Information - Download Text | Download Zip
Bob Weir - July 10, 1988
Greek Theatre - Berkeley, CA
University of California

Recording Info:
UltraMatrix SBD > Cassette Master (TDK MA-XG90)

Transfer Info:
Cassette Master (Nakamichi CR-7A) > Tascam DA-3000 (DSF 1-bit/5.8 MHz) >
KORG AudioGate 4 > Samplitude Pro X3 Suite > FLAC/24
(1 Disc FLAC)

All Transfers and Mastering By Charlie Miller
[email protected]
December 3, 2017

Patch Info:
(FOB) Nakamichi 700's > Dat (shnid=40278) supplies:
Hey Jude (complete track)
Walkin' Blues (0:00 - 2:34)

Notes:
-- Hey Jude and Blackbird with Brent Mydland
-- Opened for The Jerry Garcia Band
-- Thanks to Bill Reutelhuber for the patch source
-- It's a little hissy but still very good
-- This file set 16 bit

Setlist:
01 - Hey Jude
02 - Walkin' Blues >
03 - When I Paint My Masterpiece >
04 - This Time Forever >
05 - Shade Of Grey >
06 - KC Moan >
07 - Twilight Time >
08 - Victim Or The Crime >
09 - Throwing Stones

Encore:
10 - Encore Break
11 - Blackbird


SHNTOOL OUTPUT:
    length     expanded size    cdr  WAVE problems  fmt   ratio  filename
     6:41.44       70839932 B   ---   --   ---xx   flac  0.5523  01 Hey Jude.flac
     4:59.32       52818908 B   ---   --   ---xx   flac  0.5392  02 Walkin' Blues.flac
     3:38.74       38629292 B   ---   --   ---xx   flac  0.5619  03 When I Paint My Masterpiece.flac
     4:02.32       42764108 B   ---   --   ---xx   flac  0.4975  04 This Time Forever.flac
     3:59.23       42213740 B   ---   --   ---xx   flac  0.5414  05 Shade Of Grey.flac
     2:11.63       23256620 B   ---   --   ---xx   flac  0.5399  06 KC Moan.flac
     2:50.69       30150332 B   ---   --   ---xx   flac  0.5551  07 Twilight Time.flac
     3:58.39       42074972 B   ---   --   ---xx   flac  0.5423  08 Victim Or The Crime.flac
     8:24.18       88947980 B   ---   --   ---xx   flac  0.5238  09 Throwing Stones.flac
     1:05.12       11494268 B   ---   --   ---xx   flac  0.6207  10 Encore Break.flac
     4:54.18       51903980 B   ---   --   ---xx   flac  0.5984  11 Blackbird.flac
    46:46.49      495094132 B                            0.5460  (11 files)


Show Checksums
BobWeir1988-07-10..md5
a70c3d67390662431c559facf5123a9b *01 Hey Jude.flac
badf0a724e0e4f2f702cde87532e4909 *02 Walkin' Blues.flac
56d7960b8f78fd008d857476cdc28e30 *03 When I Paint My Masterpiece.flac
e683f9bc14e5f1539faaa6af47d56cd1 *04 This Time Forever.flac
e7186daa4452d1d6dbbc237ae120829b *05 Shade Of Grey.flac
37ee74436a38e0c339112f599851b228 *06 KC Moan.flac
4f76198103c870df6e3974ea50243b13 *07 Twilight Time.flac
c7fc13aebd2e7a9f6226536a489ad890 *08 Victim Or The Crime.flac
5513153ee13b1b549e3a734a550e56fe *09 Throwing Stones.flac
1db4c9cb48957bbec29655eb11d7b2b2 *10 Encore Break.flac
d1f103313e7265b737cf15ad32bd9aa3 *11 Blackbird.flac
BobWeir1988-07-10..ffp
01 Hey Jude.flac:c1c376563931e53fb1c25cc7a61129f0
02 Walkin' Blues.flac:6b08eb406a352ddc8d1ba3ab499e99a4
03 When I Paint My Masterpiece.flac:a7ad843d7ac1943006fe56adbb4bd04d
04 This Time Forever.flac:6f6251d0dedd801769b14784eb7cbb39
05 Shade Of Grey.flac:1b6540cb7523750a8d3c2a91723fd606
06 KC Moan.flac:3ab6607aafe452f731e6f8ea852640a0
07 Twilight Time.flac:13134338a791a7cbc445b4462d982c84
08 Victim Or The Crime.flac:9e68c95984c4245550c897aa924dabf5
09 Throwing Stones.flac:28fce33751484c3b724f2cde955db296
10 Encore Break.flac:52db1b31dc3c9782a40769cfde9d3ba3
11 Blackbird.flac:97c49deaca78feea990e7c835997a992

Comments
Add Comment
Other Sources (comments)
(FOB) Nakamichi 700/CP701 >... (0) flac24 UltraMatrix... (0)
Date User Comment