Browse Collections Artists Sources   Search Dates

Add Show    List Management    Help


Bob Weir & Rob Wasserman 05/12/90
Warfield, San Francisco, CA
Comments Add Comment    Source Collectors    Add to Collection    Add to Want List    History
Source # 140219 Other Sources
Entered by Todd
Checksums bw+rw1990-05-12..md5 , bw+rw1990-05-12..ffp
Disc Counts 0 / 0
Media Size Compressed: 438.81 MB (460128256 bytes)
Date Circulated
Date Added
12/12/2017
12/12/2017
Source Summary flac16 SBD > Cassette Master (TDK SA-X90) > Tascam DA-3000 (DSF 1-bit/5.8 MHz) > KORG AudioGate 4 > Samplitude Pro X3 Suite > flac 
Source Information - Download Text | Download Zip
Bob Weir & Rob Wasserman - May 12, 1990
Warfield Theatre - San Francisco, CA

Recording Info:
SBD > Cassette Master (TDK SA-X90)

Transfer Info:
Cassette Master (Nakamichi CR-7A) > Tascam DA-3000 (DSF 1-bit/5.8 MHz) >
KORG AudioGate 4 > Samplitude Pro X3 Suite > FLAC/24
(1 Disc FLAC)

All Transfers and Mastering By Charlie Miller
[email protected]
December 6, 2017

Notes:
-- Clarence Clemons plays Sax on Youngblood thru Easy To Slip and Throwing Stones
-- This file set is 16 bit

Set 1:
01 - Walkin' Blues
02 - Twilight Time >
03 - Blackbird
04 - K.C. Moan
05 - Youngblood
06 - Fever >
07 - Eternity
08 - The Winners >
09 - Easy To Slip

Set 2:
10 - When I Paint My Masterpiece
11 - Artificial Flowers
12 - This Time Forever >
13 - Shade Of Grey >
14 - Victim Or The Crime >
15 - Bass Solo >
16 - Heaven Help The Fool >
17 - Throwing Stones

Encore:
18 - Misty


SHNTOOL OUTPUT:
    length     expanded size    cdr  WAVE problems  fmt   ratio  filename
     4:41.26       49630016 B   -b-   --   ---xx   flac  0.5075  01 Walkin' Blues.flac
     2:52.50       30458040 B   -b-   --   ---xx   flac  0.5353  02 Twilight Time.flac
     2:46.37       29368648 B   -b-   --   ---xx   flac  0.5402  03 Blackbird.flac
     3:11.36       33775996 B   -b-   --   ---xx   flac  0.5376  04 KC Moan.flac
     4:09.01       43924928 B   -b-   --   ---xx   flac  0.5798  05 Youngblood.flac
     4:10.56       44231904 B   -b-   --   ---xx   flac  0.4844  06 Fever.flac
     3:18.17       34967044 B   -b-   --   ---xx   flac  0.5250  07 Eternity.flac
     4:19.25       45746188 B   -b-   --   ---xx   flac  0.6017  08 The Winners.flac
     6:39.28       70448712 B   -b-   --   ---xx   flac  0.5232  09 Easy To Slip.flac
     4:14.35       44887152 B   -b-   --   ---xx   flac  0.5515  10 When I Paint My Masterpiece.flac
     4:20.60       46005312 B   -b-   --   ---xx   flac  0.5374  11 Artificial Flowers.flac
     3:52.42       41022904 B   -b-   --   ---xx   flac  0.4525  12 This Time Forever.flac
     4:30.17       47667412 B   -b-   --   ---xx   flac  0.5378  13 Shade Of Grey.flac
     5:18.22       56147248 B   -b-   --   ---xx   flac  0.5770  14 Victim Or The Crime.flac
     5:18.67       56252100 B   -b-   --   ---xx   flac  0.4477  15 Bass Solo.flac
     6:30.15       68832000 B   -b-   --   ---xx   flac  0.5338  16 Heaven Help The Fool.flac
     8:14.26       87203212 B   -b-   --   ---xx   flac  0.5543  17 Throwing Stones.flac
     3:22.55       35761848 B   -b-   --   ---xx   flac  0.5199  18 Misty.flac
    81:51.13      866330664 B                            0.5311  (18 files)



Show Checksums
bw+rw1990-05-12..md5
3f75d3213bed2c86f1133263616ac194 *01 Walkin' Blues.flac
4c8b18b6888312d6cff88ee362e91bcc *02 Twilight Time.flac
a52eea48025c13e4253b1dbe7fb867f2 *03 Blackbird.flac
a6ac8f0d544b6dbdf4b45ad4448b9e38 *04 KC Moan.flac
d67e227075048e8728e11e5a395834de *05 Youngblood.flac
d62d502aa6e40c5b74c48eb7467f24a9 *06 Fever.flac
bc70582621c5008ed38da04e23fe668e *07 Eternity.flac
2fe7d581865223ddd7f2157a4dfaa369 *08 The Winners.flac
0842cbdeeccefcf4884672dc05d83837 *09 Easy To Slip.flac
d62766e2608ccf50c449f7f0e5d8f924 *10 When I Paint My Masterpiece.flac
1cf0d5ff2963ffa0551f79fba3dff991 *11 Artificial Flowers.flac
d2335fcd9c88c52189a45a5ad3e5b216 *12 This Time Forever.flac
04fd523214354c595e693cb5b2621b4c *13 Shade Of Grey.flac
14c28724421aa57e445a611c5a350f45 *14 Victim Or The Crime.flac
b4b040adf45c793894b16f6fecb6a884 *15 Bass Solo.flac
903677d10b85dbfd2631901f108f85fc *16 Heaven Help The Fool.flac
2d0653698095c92775c8f5ef6af99e44 *17 Throwing Stones.flac
0aedbb30cd41c632bdafc403f953b177 *18 Misty.flac
bw+rw1990-05-12..ffp
01 Walkin' Blues.flac:67475c61b8234e21b72d1026e9985348
02 Twilight Time.flac:239960df970de5b3b2b8e2eaa9740c62
03 Blackbird.flac:3e21002e63bc2ccc417a95b9567176f2
04 KC Moan.flac:1cfcf5d6593b395e032f33e920de5f39
05 Youngblood.flac:32782970f4fe61be8528ab4fcb9e4291
06 Fever.flac:e1f533fe3100a5d93e2ab703f8e457ae
07 Eternity.flac:13770dd38c9966708cb10fee30bae206
08 The Winners.flac:0de2b33292346b541228c8502fd4199b
09 Easy To Slip.flac:c1b8b2883ed7949f46c3451c6d4fb823
10 When I Paint My Masterpiece.flac:0f6ff92b1d7a447bf5016870bd80da62
11 Artificial Flowers.flac:0761a928f3bcf700c0cd4a0e3aefcf8a
12 This Time Forever.flac:a6abbe22d8d664c63a7f15f633c97b34
13 Shade Of Grey.flac:04045e197217d7f802c1b40fd5161a89
14 Victim Or The Crime.flac:cc3d2f86085b117055b73f56ed952154
15 Bass Solo.flac:80f3b0489751872e7a3d6a2ab89ded9a
16 Heaven Help The Fool.flac:4a8e705c5576c0b882b7a07c9126297f
17 Throwing Stones.flac:8f0750bbf1672ee29c3961529eb14bf2
18 Misty.flac:76e4beb57bbae2f334ec2a9b7c5ccd7b

Comments
Add Comment
Other Sources (comments)
flac24 SBD >... (0)
Date User Comment