Browse Collections Artists Sources   Search Dates

Add Show    List Management    Help


Grateful Dead 09/16/93
Madison Square Garden, New York, NY
Comments Add Comment    Source Collectors    Add to Collection    Add to Want List    History
Source # 140220 Other Sources
Entered by Matt Vernon
Checksums flac-md5 , ffp
Disc Counts 0 / 0
Media Size
Uncompressed: 1.76 GB (1890079600 bytes)
Date Circulated
Date Added
12/13/2017
12/13/2017
Source Summary flac16/48kHz; Source: (FOB) Schoeps cmc4 mk4 > dat (48k) - Taped by Jeff Zimmer and Roger J, provided by Rich Gastwirt; Transfer: Dat > Panasonic SV-3700 > Tascam DA-3000 . wav 16/48 - Transferred by Charlie Miller; Lineage: iZotope RX6 Advanced > iZotope Ozone 5 Advanced > CD Wave > TLH > Flac 1648; edited and mastered SIRMick December 2017 
  Archive
Source Information - Download Text | Download Zip
Grateful Dead
Madison Square Garden
New York , NY
09/16/1993


Source: (FOB) Schoeps cmc4 mk4 > dat (48k) - Taped by Jeff Zimmer and Roger  J, provided by Rich Gastwirt
Transfer: Dat > Panasonic SV-3700 > Tascam DA-3000 . wav 16/48 - Transferred by Charlie Miller
Lineage: iZotope RX6 Advanced > iZotope Ozone 5 Advanced > CD Wave > TLH > Flac 1648



Set I

01   Rain
02   Shakedown Street >
03   Wang Dang Doodle
04   Cold Rain And Snow
05   Queen Jane Approximately
06   Althea
07   Eternity
08   Don't Ease Me In


Set II

01   crowd/tuning
02   China Cat Sunflower >
03   I Know You Rider
04   Estimated Prophet >
05   Eyes Of The World >
06   Drums >
07   Space >
08   Way To Go Home >
09   Days Between >
10   Throwing Stones >
11   Not Fade Away

encore

12   Liberty



Thanks to everyone involved


edited and mastered
SIRMick
December 2017


shntool output:

    length     expanded size    cdr  WAVE problems  fmt   ratio  filename
     4:55.253      56688684 B   cxx   --   ---xx   flac  0.5341  gd1993-09-16s1t01.flac
    12:49.747     147791404 B   cxx   --   ---xx   flac  0.5563  gd1993-09-16s1t02.flac
     6:27.747      74447404 B   cxx   --   ---xx   flac  0.5468  gd1993-09-16s1t03.flac
     7:49.653      90173484 B   cxx   --   ---xx   flac  0.5523  gd1993-09-16s1t04.flac
     6:09.320      70909484 B   cxx   --   ---xx   flac  0.5624  gd1993-09-16s1t05.flac
     8:28.680      97666604 B   cxx   --   ---xx   flac  0.5769  gd1993-09-16s1t06.flac
     9:01.613     103989804 B   cxx   --   ---xx   flac  0.5584  gd1993-09-16s1t07.flac
     3:26.813      39708204 B   cxx   --   ---xx   flac  0.5941  gd1993-09-16s1t08.flac
     1:55.293      22136364 B   cxx   --   ---xx   flac  0.4058  gd1993-09-16s2t01.flac
     6:11.720      71370284 B   cxx   --   ---xx   flac  0.5648  gd1993-09-16s2t02.flac
     5:33.173      63969324 B   cxx   --   ---xx   flac  0.5724  gd1993-09-16s2t03.flac
    12:20.560     142187564 B   cxx   --   ---xx   flac  0.5309  gd1993-09-16s2t04.flac
    10:20.747     119183404 B   cxx   --   ---xx   flac  0.5253  gd1993-09-16s2t05.flac
    12:59.547     149673004 B   cxx   --   ---xx   flac  0.4789  gd1993-09-16s2t06.flac
    13:54.133     160153644 B   cxx   --   ---xx   flac  0.4393  gd1993-09-16s2t07.flac
     6:29.693      74821164 B   cxx   --   ---xx   flac  0.5455  gd1993-09-16s2t08.flac
     9:51.573     113582124 B   cxx   --   ---xx   flac  0.4907  gd1993-09-16s2t09.flac
     9:18.400     107212844 B   cxx   --   ---xx   flac  0.5533  gd1993-09-16s2t10.flac
     8:57.280     103157804 B   cxx   --   ---xx   flac  0.5055  gd1993-09-16s2t11.flac
     7:03.213      81257004 B   cxx   --   ---xx   flac  0.5451  gd1993-09-16s2t12.flac
   164:04.160    1890079600 B                            0.5287  (20 files)


Show Checksums
flac-md5
65b5449a23447dba16e279852df409b7 *gd1993-09-16s1t01.flac
65f450de0caace3b14223f83ea645198 *gd1993-09-16s1t02.flac
cb3fa3ae7fd1f61652e47dc3ea905129 *gd1993-09-16s1t03.flac
e5e0715047edc0fe804c2074fff4904a *gd1993-09-16s1t04.flac
e9cd061a24683bda8a22f66376d4a9d8 *gd1993-09-16s1t05.flac
5f8c2c9845997316cfc1215f55a72af0 *gd1993-09-16s1t06.flac
c9234c6b4df7ae682593cc42942a005f *gd1993-09-16s1t07.flac
84cb50d4c9baede9281273625bd56385 *gd1993-09-16s1t08.flac
de7131db524abf1e42e4bacd7642221c *gd1993-09-16s2t01.flac
1c6e642a63d80cf6f7f29c900f292982 *gd1993-09-16s2t02.flac
cf241e5e8142595f646d03e28311e822 *gd1993-09-16s2t03.flac
6a52c37e5495a62b80fcca1240a47696 *gd1993-09-16s2t04.flac
0ae35b19f9af7651b437d46221f8ab11 *gd1993-09-16s2t05.flac
d6abeb41ec764751ab6c983dcea6a572 *gd1993-09-16s2t06.flac
66eeb77b884aa968f5f78ab3ded15eba *gd1993-09-16s2t07.flac
cb2c1fbd597267ea57d40416fb425649 *gd1993-09-16s2t08.flac
09f6ece7aa59a5496d62572e2614eb3d *gd1993-09-16s2t09.flac
34fcdc24b78e3a29dc4e0c8006785696 *gd1993-09-16s2t10.flac
02f1f215e2bbaaaf83e3581d9e5d9956 *gd1993-09-16s2t11.flac
62d81549f9aef99d190ad234e517d272 *gd1993-09-16s2t12.flac
ffp
gd1993-09-16s1t01.flac:f3b072bb3d132f0a4aacf1af7b1905f8
gd1993-09-16s1t02.flac:5ed4af70faf344318acf47e03afe971e
gd1993-09-16s1t03.flac:f7dfc82ba9eac17f3442002c6531501e
gd1993-09-16s1t04.flac:28d8794a98e9721ce1eec41e57cd45b7
gd1993-09-16s1t05.flac:adfcf7b12403248659edb59a3baed879
gd1993-09-16s1t06.flac:ed09516f35dbfbf9371d7c979670381f
gd1993-09-16s1t07.flac:1dd0e3b93b5db0e47965ed265c4ae714
gd1993-09-16s1t08.flac:e09a7e11d8e8a242de5d818c35047fa0
gd1993-09-16s2t01.flac:2aa0707f74babfeb239ce2a2e1641805
gd1993-09-16s2t02.flac:93977cdaeadc491ce6f1478559399552
gd1993-09-16s2t03.flac:2be3308362c51fc55958a2361840d269
gd1993-09-16s2t04.flac:e95dfdb0fcebd7523a4f00a9603966c6
gd1993-09-16s2t05.flac:8e8bbbd96d5f95c40260c16ad366cba8
gd1993-09-16s2t06.flac:f6c617c4d68faf2b19298b385a14c594
gd1993-09-16s2t07.flac:efe599f1345ba019f3095f029f7dce57
gd1993-09-16s2t08.flac:3b2045842460b5b2c227840b13830045
gd1993-09-16s2t09.flac:74755ecf0c719dc3c6cc7841e1009fd8
gd1993-09-16s2t10.flac:fffdec7f2b87f45d027abdfdb3a75847
gd1993-09-16s2t11.flac:ff3a943b743ebc07a6b9442345f8ff60
gd1993-09-16s2t12.flac:f0b6e9b3763aa42675128b377870931c

Comments
Add Comment
Other Sources (comments)
FOB/DFC Sec. 2 - Row R -... (0) DAUD/FOB Schoeps... (0) SBD DAT> C> DAT> WAV> CE>... (0) flac16; Recording... (0) flac16 ; AUD:... (0) flac16/48kHz;... (0) flac16; Recording... (1)
Date User Comment