Browse Collections Artists Sources   Search Dates

Add Show    List Management    Help


Grateful Dead 05/14/93
Sam Boyd Silver Bowl, U.N.L.V., Las Vegas, NV
Comments Add Comment    Source Collectors    Add to Collection    Add to Want List    History
Source # 140224 Other Sources
Entered by Matt Vernon
Checksums ffp , flac-md5
Disc Counts 0 / 0
Media Size Compressed: 836.8 MB (877453312 bytes)
Date Circulated
Date Added
12/13/2017
12/13/2017
Source Summary flac16; Recording Info: SBD > Cassette Master (TDK SA-X100); Transfer Info: Cassette Master (Nakamichi CR-7A) > Tascam DA-3000 (DSF 1-bit/5.8 MHz) > KORG AudioGate 4 > Samplitude Pro X3 Suite > FLAC/24; All Transfers and Mastering By Charlie Miller 
  Archive
Source Information - Download Text | Download Zip
Grateful Dead - May 14, 1993
Sam Boyd Silver Bowl - Las Vegas, NV

Recording Info:
SBD > Cassette Master (TDK SA-X100)

Transfer Info:
Cassette Master (Nakamichi CR-7A) > Tascam DA-3000 (DSF 1-bit/5.8 MHz) >
KORG AudioGate 4 > Samplitude Pro X3 Suite > FLAC/24
(1 Disc FLAC)

All Transfers and Mastering By Charlie Miller
[email protected]
December 5, 2017

Notes:
-- Two sets of masters were used to make this show complete
-- This file set is 16 bit

Set 1:

01 - Cold Rain And Snow >
02 - Wang Dang Doodle
03 - Lazy River Road
04 - Queen Jane Approximately
05 - Ramble On Rose
06 - Black Throated Wind
07 - Liberty

Set 2:
08 - Scarlet Begonias >
09 - Fire On The Mountain
10 - Way To Go Home
11 - Corrina >
12 - Uncle John's Band >
13 - Drums >
14 - Space >
15 - I Need A Miracle >
16 - Standing On The Moon >
17 - Sugar Magnolia

Encore:
18 - I Fought The Law


SHNTOOL OUTPUT:
    length     expanded size    cdr  WAVE problems  fmt   ratio  filename
     6:08.22       64966988 B   ---   --   ---xx   flac  0.5871  01 Cold Rain And Snow.flac
     6:28.41       68539676 B   ---   --   ---xx   flac  0.5595  02 Wang Dang Doodle.flac
     8:06.61       85873916 B   ---   --   ---xx   flac  0.5536  03 Lazy River Road.flac
     8:17.24       87727292 B   ---   --   ---xx   flac  0.5377  04 Queen Jane Approximately.flac
     7:50.49       83023292 B   ---   --   ---xx   flac  0.5546  05 Ramble On Rose.flac
     7:05.09       74991212 B   ---   --   ---xx   flac  0.5666  06 Black Throated Wind.flac
     6:43.31       71162156 B   ---   --   ---xx   flac  0.5725  07 Liberty.flac
     6:48.42       72070028 B   ---   --   ---xx   flac  0.6074  08 Scarlet Begonias.flac
    15:44.64      166672172 B   ---   --   ---xx   flac  0.5596  09 Fire On The Mountain.flac
     6:43.01       71091596 B   ---   --   ---xx   flac  0.6083  10 Way To Go Home.flac
     9:43.36      102925916 B   ---   --   ---xx   flac  0.6004  11 Corrina.flac
    11:59.53      126956300 B   ---   --   ---xx   flac  0.5651  12 Uncle John's Band.flac
    10:33.30      111731804 B   ---   --   ---xx   flac  0.4930  13 Drums.flac
     9:30.12      100576268 B   ---   --   ---xx   flac  0.4550  14 Space.flac
     4:34.55       48463004 B   ---   --   ---xx   flac  0.5978  15 I Need A Miracle.flac
     8:55.57       94508108 B   ---   --   ---xx   flac  0.5691  16 Standing On The Moon.flac
     9:23.38       99402620 B   ---   --   ---xx   flac  0.6017  17 Sugar Magnolia.flac
     3:03.58       32417660 B   ---   --   ---xx   flac  0.6075  18 I Fought The Law.flac
   147:41.08     1563100008 B                            0.5613  (18 files)



Show Checksums
ffp
01 Cold Rain And Snow.flac:5ad48287d594d83a2f42a4435784bb08
02 Wang Dang Doodle.flac:6a1784a38f9f214dd98267ce5f33e197
03 Lazy River Road.flac:f2a068227ea5311793a13f8befc346ba
04 Queen Jane Approximately.flac:514dd50fafc44af2b393b02b7b34841f
05 Ramble On Rose.flac:636785dfaa52cee2770c20f62ded2299
06 Black Throated Wind.flac:23ae97a300fb001070b93ec4c7959267
07 Liberty.flac:84f406ed5aa7a5a8129f10cc53375588
08 Scarlet Begonias.flac:e6606739db86fb9424776012a01b29e3
09 Fire On The Mountain.flac:9bf5e38c943184021d12261f0fa4beff
10 Way To Go Home.flac:4d6173404a77040ee3c9366fa66b2766
11 Corrina.flac:0de472309bc3f922b71778aa6a0575ec
12 Uncle John's Band.flac:2c505d5671fb4c424b6d44b6ea3eb1ce
13 Drums.flac:d87b2ee2feddd489aa416e55654d2bd4
14 Space.flac:c5bdc5595c0703c6435ee100334cbe70
15 I Need A Miracle.flac:e169a403cc818947aa6e070d18664fcc
16 Standing On The Moon.flac:cd8673c2434bdba477ee388d355bc4b8
17 Sugar Magnolia.flac:e58a3f7fc2fad7d9878f4406a5bcf31a
18 I Fought The Law.flac:ca963aaad600255dcb10658899b52307
flac-md5
6e35a5ca0000a666503bf38db47b45d0 *01 Cold Rain And Snow.flac
627e358327f0c28a9f66f1d94f3355e4 *02 Wang Dang Doodle.flac
44799b0db2bd6b22e91087bebe9ae825 *03 Lazy River Road.flac
93bd57d64020c2b921020c2343203e8f *04 Queen Jane Approximately.flac
6071c5a78973e632de7ddd62271635fe *05 Ramble On Rose.flac
7cf92b64d706d0c3ec27c5da1972f80c *06 Black Throated Wind.flac
9d86888f9723e141d72172eb179a747a *07 Liberty.flac
731bd9f06fa7ba6be798fdd4c72771e4 *08 Scarlet Begonias.flac
8a3c5fca206cb3e3485289f41ecd73ec *09 Fire On The Mountain.flac
bef2e544334d8f142bbf9ec384679521 *10 Way To Go Home.flac
5628a945a99c139343c4df76e1230abd *11 Corrina.flac
a7fa1a9f3a52761cacf8eaf83f7cf130 *12 Uncle John's Band.flac
3d67b0131200dae22714c083c1434b7c *13 Drums.flac
b9caa4f4457fea5ea0904c08ac21cd69 *14 Space.flac
3991f9657fdfd760646323e1688d9823 *15 I Need A Miracle.flac
6caa1142ea92946e629a5e412a750bf1 *16 Standing On The Moon.flac
76fd573fd16905e4b318a05b5a5581c8 *17 Sugar Magnolia.flac
f2019bda225bc3df8028952dcb74da7f *18 I Fought The Law.flac

Comments
Add Comment
Other Sources (comments)
A : ? > DAT > CDR > EAC >... (0) flac16; Sennheiser... (0) flac16; Recording... (0) flac16/48kHz;... (0) flac24; Recording... (0) flac16/48kHz; Master... (0)
Date User Comment