Browse Collections Artists Sources   Search Dates

Add Show    List Management    Help


Grateful Dead 08/18/87
Compton Terrace Amphitheatre, Tempe, AZ
Comments Add Comment    Source Collectors    Add to Collection    Add to Want List    History
Source # 140235 Other Sources
Entered by Matt Vernon
Checksums ffp , flac-md5
Disc Counts 0 / 0
Media Size Compressed: 328.67 MB (344637440 bytes)
Date Circulated
Date Added
12/14/2017
12/14/2017
Source Summary flac16; Set 1 Recording Info: UltraMatrix SBD > Cassette Master (TDK MA-R90); Transfer Info: Cassette Master (Nakamichi CR-7A) > Tascam DA-3000 (DSF 1-bit/5.8 MHz) > KORG AudioGate 4 > Samplitude Pro X3 Suite > FLAC/24; All Transfers and Mastering By Charlie Miller 
  Archive
Source Information - Download Text | Download Zip
Grateful Dead - August 18, 1987
Compton Terrace Amphitheatre - Tempe, AZ

Recording Info:
UltraMatrix SBD > Cassette Master (TDK MA-R90)

Transfer Info:
Cassette Master (Nakamichi CR-7A) > Tascam DA-3000 (DSF 1-bit/5.8 MHz) >
KORG AudioGate 4 > Samplitude Pro X3 Suite > FLAC/24
(1 Disc FLAC)

All Transfers and Mastering By Charlie Miller
[email protected]
December 5, 2017

Notes:
-- Set 2 is currently missing
-- this file set is 16 bit

Set 1:
01 - Hell In A Bucket >
02 - Sugaree
03 - Walkin' Blues
04 - Ramble On Rose
05 - My Brother Esau
06 - Peggy-O
07 - Greatest Story Ever Told >
08 - Bertha


SHNTOOL OUTPUT:
    length     expanded size    cdr  WAVE problems  fmt   ratio  filename
     6:01.36       63765116 B   ---   --   ---xx   flac  0.6281  01 Hell In A Bucket.flac
    10:26.74      110600492 B   ---   --   ---xx   flac  0.5960  02 Sugaree.flac
     7:27.12       78879068 B   ---   --   ---xx   flac  0.5664  03 Walkin' Blues.flac
     8:44.35       92515964 B   ---   --   ---xx   flac  0.5656  04 Ramble On Rose.flac
     4:47.20       50673884 B   ---   --   ---xx   flac  0.5956  05 My Brother Esau.flac
     7:05.62       75115868 B   ---   --   ---xx   flac  0.5647  06 Peggy-O.flac
     3:59.07       42176108 B   ---   --   ---xx   flac  0.6094  07 Greatest Story Ever Told.flac
     6:46.19       71663132 B   ---   --   ---xx   flac  0.6048  08 Bertha.flac
    55:18.40      585389632 B                            0.5887  (8 files)



Show Checksums
ffp
01 Hell In A Bucket.flac:4d04cda1bd51da32b403f0f730b92398
02 Sugaree.flac:4df5d6d3469ab4134c571bb9c08abc1c
03 Walkin' Blues.flac:e7fed2c5dac4c30e27e9157508c20122
04 Ramble On Rose.flac:c42292be67d1d71c22541b33306ac626
05 My Brother Esau.flac:0e8c8bcdea2ce444283cf1c50a78cd87
06 Peggy-O.flac:10d9c9242c3ac6927e1c1db22b1d7715
07 Greatest Story Ever Told.flac:4cddabe048d1039a687aaf6c19a39196
08 Bertha.flac:e34d887a7dcb7082e2acf7d1eef1b0f0
flac-md5
c97bd592fad6b7b729c9658ff5af0009 *01 Hell In A Bucket.flac
b805a5de45bd2e95ab40ec5955a36376 *02 Sugaree.flac
35ff0201ef6844179062eb8bf440ed74 *03 Walkin' Blues.flac
e2fa9d923988ad2cccb3cf5af9a0e6c4 *04 Ramble On Rose.flac
f99657a0a4775e2ce504f490cdeafb15 *05 My Brother Esau.flac
5c82ab8357c1d9d430cb166066b67436 *06 Peggy-O.flac
a1a51a483c4050ba148cc98548cf5de1 *07 Greatest Story Ever Told.flac
e06c171299cc6f4c03cbdb78ad6e9544 *08 Bertha.flac

Comments
Add Comment
Other Sources (comments)
Schoeps CMC 32s > DAT > CD;... (1) flac16; FOB Schoeps... (1) flac16; Rich... (0) flac24; Set 1... (0) flac16; Source Info:... (0)
Date User Comment