Browse Collections Artists Sources   Search Dates

Add Show    List Management    Help


Grateful Dead 10/16/89
Meadowlands Arena, East Rutherford, NJ
Comments Add Comment    Source Collectors    Add to Collection    Add to Want List    History
Source # 140263 Other Sources
Entered by Matt Vernon
Checksums flac-md5 , ffp
Disc Counts 0 / 0
Media Size Compressed: 924.42 MB (969326592 bytes)
Date Circulated
Date Added
12/16/2017
12/16/2017
Source Summary flac16; Recording Info: Ultra Matrix SBD > Cassette Master (TDK MA-XG90); Transfer Info: Cassette Master (Nakamichi CR-7A) > Tascam DA-3000 (DSF 1-bit/5.8 MHz) > KORG AudioGate 4 > Samplitude Pro X3 Suite > FLAC/24; All Transfers and Mastering By Charlie Miller 
  Archive
Source Information - Download Text | Download Zip
Grateful Dead - October 16, 1989
Meadowlands Arena - East Rutherford, NJ

Recording Info:
Ultra Matrix SBD > Cassette Master (TDK MA-XG90)

Transfer Info:
Cassette Master (Nakamichi CR-7A) > Tascam DA-3000 (DSF 1-bit/5.8 MHz) >
KORG AudioGate 4 > Samplitude Pro X3 Suite > FLAC/24
(1 Disc FLAC)

All Transfers and Mastering By Charlie Miller
[email protected]
December 7, 2017

Notes:
-- Two sets of masters were used to make this show complete
-- This file set is 16 bit

Set 1:
01 - Tuning
02 - Picasso Moon >
03 - Mississippi Half-Step Uptown Toodeloo >
04 - Feel Like A Stranger
05 - Never Trust A Woman
06 - Built To Last
07 - Stuck Inside Of Mobile With The Memphis Blues Again
08 - Let It Grow >
09 - Deal

Set 2:
10 - Tuning
11 - Dark Star >
12 - Playing In The Band >
13 - Uncle John's Band >
14 - Playing In The Band Jam >
15 - Drums >
16 - Space >
17 - I Will Take You Home >
18 - I Need A Miracle >
19 - Dark Star >
20 - Attics Of My Life >
21 - Playing In The Band

Encore:
22 - Encore Break
23 - And We Bid You Goodnight


SHNTOOL OUTPUT:
    length     expanded size    cdr  WAVE problems  fmt   ratio  filename
     1:08.07       12011708 B   ---   --   ---xx   flac  0.4953  01 Tuning.flac
     6:48.71       72138236 B   ---   --   ---xx   flac  0.6461  02 Picasso Moon.flac
     6:43.19       71133932 B   ---   --   ---xx   flac  0.6174  03 Mississippi Half-Step Uptown Toodeloo.flac
     7:34.50       80203244 B   ---   --   ---xx   flac  0.6188  04 Feel Like A Stranger.flac
     9:17.24       98311292 B   ---   --   ---xx   flac  0.5729  05 Never Trust A Woman.flac
     5:26.18       57548780 B   ---   --   ---xx   flac  0.5989  06 Built To Last.flac
    11:26.11      121036316 B   ---   --   ---xx   flac  0.5929  07 Stuck Inside Of Mobile With The Memphis Blues Again.flac
    11:58.27      126718748 B   ---   --   ---xx   flac  0.6177  08 Let It Grow.flac
     8:44.42       92532428 B   ---   --   ---xx   flac  0.6278  09 Deal.flac
     0:47.73        8462540 B   ---   --   ---xx   flac  0.5269  10 Tuning.flac
    11:42.26      123893996 B   ---   --   ---xx   flac  0.6458  11 Dark Star.flac
     8:08.27       86146748 B   ---   --   ---xx   flac  0.6650  12 Playing In The Band.flac
     9:37.26      101843996 B   ---   --   ---xx   flac  0.6501  13 Uncle John's Band.flac
     9:20.32       98859308 B   ---   --   ---xx   flac  0.6372  14 Playing In The Band Jam.flac
     6:12.13       65651420 B   ---   --   ---xx   flac  0.5149  15 Drums.flac
     6:15.69       66312332 B   ---   --   ---xx   flac  0.5535  16 Space.flac
     4:26.70       47087084 B   ---   --   ---xx   flac  0.6009  17 I Will Take You Home.flac
     4:05.45       43323884 B   ---   --   ---xx   flac  0.6711  18 I Need A Miracle.flac
     5:25.03       57337100 B   ---   --   ---xx   flac  0.6584  19 Dark Star.flac
     4:54.28       51927500 B   ---   --   ---xx   flac  0.6287  20 Attics Of My Life.flac
     3:23.20       35856284 B   ---   --   ---xx   flac  0.6651  21 Playing In The Band.flac
     1:50.01       19406396 B   ---   --   ---xx   flac  0.6070  22 Encore Break.flac
     2:50.56       30119756 B   ---   --   ---xx   flac  0.6432  23 And We Bid You Goodnight.flac
   148:08.08     1567863028 B                            0.6182  (23 files)




Show Checksums
flac-md5
1796e2e10fe30d7f01680d736a8ab4ad *01 Tuning.flac
49f06ff7b96e96079dd92cfec654603b *02 Picasso Moon.flac
6b5c4507921554de48b194226bc448de *03 Mississippi Half-Step Uptown Toodeloo.flac
2614f2e638c33f8e913bc3f8ce85ea27 *04 Feel Like A Stranger.flac
65214ba9e9ad66ee1af7963a45f41655 *05 Never Trust A Woman.flac
25ec6a052b0c1f66e6bd18d933305cc0 *06 Built To Last.flac
b16f3cb933818ae57c9cd9a5edea53fd *07 Stuck Inside Of Mobile With The Memphis Blues Again.flac
030ee3ac9c88031627aa8f9ae619a1f2 *08 Let It Grow.flac
d933bb4d3b4b0e16c3e08492b3702e6d *09 Deal.flac
cb9ab9e70c1a9e108565e3d6590653ce *10 Tuning.flac
0debb6e617f975865a26b8cdea2f170a *11 Dark Star.flac
5e604f00575214ffc68b097af5d9d6c5 *12 Playing In The Band.flac
7d8abb8db89ebca3c10ceaf8180ab6e8 *13 Uncle John's Band.flac
9893abff4ef2b4d2fee842a5db1bf0d8 *14 Playing In The Band Jam.flac
6a28909d0f7fdb8366c49c58c1fb3d8b *15 Drums.flac
87c5a6185e4a5fb727695cc06a7e33e4 *16 Space.flac
51367145697611b5a88dec03a048eec6 *17 I Will Take You Home.flac
a9ddd3d799be595328d1b51ed6229cfb *18 I Need A Miracle.flac
5d74f934df2789453e642f6d8195b5ce *19 Dark Star.flac
4431b3d881e0b4b8c2477f8a2e7ec63b *20 Attics Of My Life.flac
755fdfba1a868ba1c5e68c6c81603c55 *21 Playing In The Band.flac
066a6af84b4a4b18149cfb2dfdcff3ab *22 Encore Break.flac
9a152233b8269b4bca6e66700c64a131 *23 And We Bid You Goodnight.flac
ffp
01 Tuning.flac:016850d4cf71fec721c07c05b7f68df5
02 Picasso Moon.flac:3102fb055b01ff772f3439b132f13549
03 Mississippi Half-Step Uptown Toodeloo.flac:f856d16637b9632c8a65bfcd13648d14
04 Feel Like A Stranger.flac:de9ec92b23f50b1cff78094c645cc3cf
05 Never Trust A Woman.flac:bbea1d728b8fafe10ce2717f37622da4
06 Built To Last.flac:e0dfb7cfee545856ac8a59dfde665637
07 Stuck Inside Of Mobile With The Memphis Blues Again.flac:abbe3aec25875cc81e9815efe124083f
08 Let It Grow.flac:d6d4ff543205f112b73e63403a9d17c5
09 Deal.flac:6cf9a672f9739385d6a5976fb12f37b8
10 Tuning.flac:96b17bb9e8a0607564c33fa7ec349a82
11 Dark Star.flac:8ac0f172b69e7d85b12914f6e63f7cb7
12 Playing In The Band.flac:85cb98966fff8cf1e17046d7bcd6dbbf
13 Uncle John's Band.flac:85d0fc447e425f4abc624ee8ebf5b340
14 Playing In The Band Jam.flac:be195206bd7633b611c55761bda6ec9d
15 Drums.flac:df98a6451abf3cbc97ed7c24951d1496
16 Space.flac:f8e002d921cdfa732349754e5a70b97d
17 I Will Take You Home.flac:47aab726916f20b6ac3f354a76526602
18 I Need A Miracle.flac:115c2fc3f2ea3043d2390f5b78a82834
19 Dark Star.flac:4c607671fe3cd664f6fb7a33f95dc4f6
20 Attics Of My Life.flac:2efe48dcf78419a7ddd004ac91a5f65d
21 Playing In The Band.flac:2c14f640d50c3b9fbad9bc449f9141bb
22 Encore Break.flac:6c7c4c7a7d1fff7301c0c03a850f4333
23 And We Bid You Goodnight.flac:5a0d0bcc21eebc367d65373662f7cec7

Comments
Add Comment
Other Sources (comments)
source update: DSBD> DAT>... (9) unknown audience recording... (0) flac16; Set 2 Only -... (1) flac16; matrix of... (0) flac16/48kHz;... (0) flac16; Source:... (0) flac16; Taper: M.... (0) flac24; Master... (0) flac16; Master... (0) flac24; Recording... (0) flac16/48kHz; Source... (0)
Date User Comment