Browse Collections Artists Sources   Search Dates

Add Show    List Management    Help


Grateful Dead 12/08/89
Great Western LA Forum, Inglewood, CA
Comments Add Comment    Source Collectors    Add to Collection    Add to Want List    History
Source # 140265 Other Sources
Entered by Matt Vernon
Checksums ffp , flac-md5
Disc Counts 0 / 0
Media Size Compressed: 976.8 MB (1024249856 bytes)
Date Circulated
Date Added
12/16/2017
12/16/2017
Source Summary flac16; Recording Info: Ultra Matrix SBD > Cassette Master (TDK MA-XG90); Transfer Info: Cassette Master (Nakamichi CR-7A) > Tascam DA-3000 (DSF 1-bit/5.8 MHz) > KORG AudioGate 4 > Adobe Audition CC2015 > Samplitude Pro X3 Suite > FLAC/24; All Transfers and Mastering By Charlie Miller 
  Archive
Source Information - Download Text | Download Zip
Grateful Dead - December 8, 1989
Great Western Forum - Inglewood, CA

Recording Info:
Ultra Matrix SBD > Cassette Master (TDK MA-XG90)

Transfer Info:
Cassette Master (Nakamichi CR-7A) > Tascam DA-3000 (DSF 1-bit/5.8 MHz) >
KORG AudioGate 4 > Adobe Audition CC2015 > Samplitude Pro X3 Suite > FLAC/24
(1 Disc FLAC)

All Transfers and Mastering By Charlie Miller
[email protected]
December 8, 2017

Patch Info:
(FOB) Schoeps CMC4/MK4 > Dat (shnid=132701) supplies:
Not Fade Away (5:14 - end of track)
Encore Break (0:00 - 0:23)

Notes:
-- This file set is 16 bit

Set 1:
01 - Tuning
01 - Let The Good Times Roll
02 - Feel Like A Stranger
03 - Stagger Lee
04 - Beat It On Down The Line
05 - Ramble On Rose
06 - Cassidy
07 - Blow Away

Set 2:
01 - Help On The Way >
02 - Slipknot! >
03 - Franklin's Tower >
04 - Looks Like Rain >
05 - He's Gone >
06 - Drums >
01 - Space >
02 - I Will Take You Home >
03 - The Other One >
04 - Wharf Rat >
05 - Throwing Stones >
06 - Not Fade Away

Encore:
07 - U.S. Blues


SHNTOOL OUTPUT:
    length     expanded size    cdr  WAVE problems  fmt   ratio  filename
     2:47.62       29604668 B   ---   --   ---xx   flac  0.4896  01 Tuning.flac
     4:31.55       47933804 B   ---   --   ---xx   flac  0.6032  02 Let The Good Times Roll.flac
     9:43.50      102958844 B   ---   --   ---xx   flac  0.6034  03 Feel Like A Stranger.flac
     8:04.58       85514060 B   ---   --   ---xx   flac  0.5588  04 Stagger Lee.flac
     3:11.64       33842972 B   ---   --   ---xx   flac  0.6275  05 Beat It On Down The Line.flac
     8:36.69       91184732 B   ---   --   ---xx   flac  0.5749  06 Ramble On Rose.flac
     6:42.42       71011628 B   ---   --   ---xx   flac  0.6161  07 Cassidy.flac
    11:59.05      126843404 B   ---   --   ---xx   flac  0.6383  08 Blow Away.flac
     0:22.02        3885548 B   ---   --   ---xx   flac  0.4760  09 Tuning.flac
     4:13.40       44723324 B   ---   --   ---xx   flac  0.6270  10 Help On The Way.flac
     6:37.09       70052012 B   ---   --   ---xx   flac  0.6074  11 Slipknot!.flac
     8:43.60       92398364 B   ---   --   ---xx   flac  0.6399  12 Franklin's Tower.flac
     9:41.72      102657788 B   ---   --   ---xx   flac  0.5911  13 Looks Like Rain.flac
    12:52.38      136270220 B   ---   --   ---xx   flac  0.5930  14 He's Gone.flac
     7:12.32       76280108 B   ---   --   ---xx   flac  0.5150  15 Drums.flac
     7:30.16       79417676 B   ---   --   ---xx   flac  0.5251  16 Space.flac
     4:04.12       43069868 B   ---   --   ---xx   flac  0.5453  17 I Will Take You Home.flac
     9:28.41      100291676 B   ---   --   ---xx   flac  0.6201  18 The Other One.flac
     9:51.49      104367692 B   ---   --   ---xx   flac  0.5848  19 Wharf Rat.flac
     9:10.15       97055324 B   ---   --   ---xx   flac  0.6339  20 Throwing Stones.flac
     7:49.48       82844540 B   ---   --   ---xx   flac  0.5908  21 Not Fade Away.flac
     3:54.71       41444636 B   ---   --   ---xx   flac  0.5093  22 Encore Break.flac
     5:54.27       62509148 B   ---   --   ---xx   flac  0.6429  23 US Blues.flac
   163:05.37     1726162036 B                            0.5933  (23 files)




Show Checksums
ffp
01 Tuning.flac:d602007f203da68c8da8842d33b6c6d8
02 Let The Good Times Roll.flac:b17a2394c16997d1a6e408c510956d7f
03 Feel Like A Stranger.flac:3979d9c17c6cd0071af715b48605ea81
04 Stagger Lee.flac:07ecee2b2c10f31327e3fab920ba8956
05 Beat It On Down The Line.flac:e1df1a0d51d074f9307ec1b132eb6569
06 Ramble On Rose.flac:5ce03f11f46c037a717cb77e189966a1
07 Cassidy.flac:4dc6d273cd2e7de386e0c78da17522c0
08 Blow Away.flac:4062207d9dc4475a92a3241475d63e48
09 Tuning.flac:69e33378c962a96372eefdcaf5f5f75b
10 Help On The Way.flac:5cd152e5700e2501d6da3ac6961ebaf3
11 Slipknot!.flac:bf86dc7af4458380b08002998a253cc9
12 Franklin's Tower.flac:ac4057c29222b81b0251c5ad053120a5
13 Looks Like Rain.flac:767e7be662ec03c96e2ab5558c8fbcab
14 He's Gone.flac:b27dcfb22f56268dd695affb20328cca
15 Drums.flac:33e2749cc22869f14f59c8bea4dc0e75
16 Space.flac:4b17cb3fbb2646b0f4e8adb4fea35a6f
17 I Will Take You Home.flac:43f7e4ea8a745ba626487613614241c4
18 The Other One.flac:d26570412308c1da64567b9fa13092c3
19 Wharf Rat.flac:b17897e1d645fb9889a60435e6dee3b1
20 Throwing Stones.flac:08136845887ef7fcebc0f0227369e56e
21 Not Fade Away.flac:d5aba2aff43f5b43e8d199ce5c38f001
22 Encore Break.flac:3fb670b58e73e5efd5fcb6b1f13a0f25
23 US Blues.flac:763f22fdd27217796d0979e0e29d11ba
flac-md5
7b245164d176e89b2f93d92371ae7079 *01 Tuning.flac
f77bb7b19708ec6d0473df389dfcad59 *02 Let The Good Times Roll.flac
a444912d85896c3c95f6a05baa5f4dfc *03 Feel Like A Stranger.flac
3651d85f7d8ef72c9a8fb567b7c5aa37 *04 Stagger Lee.flac
ca913b8c8eb49b8948f13f05715ff77e *05 Beat It On Down The Line.flac
f76941d273728a1aaae6de81546fb62c *06 Ramble On Rose.flac
a5a05f0da12f216f739fc4cb6fbf2136 *07 Cassidy.flac
cf88951f21a049885ef805c4f5aea04b *08 Blow Away.flac
c06fd0368e23888aca7df495ab6e9b7b *09 Tuning.flac
bdab92a4121bb1929dd47892c70d205e *10 Help On The Way.flac
0e236648a9f92a134a0526aafa460b98 *11 Slipknot!.flac
83a309b51eb45160cb43f67ad56a84ae *12 Franklin's Tower.flac
a2021f32146a7ec38127afc3274ba6de *13 Looks Like Rain.flac
2b97e1e4b468b0f898d3b16ec66d6b7e *14 He's Gone.flac
7e1cc19f4b7a4587c2b02aa8939476c9 *15 Drums.flac
2d44856209c7beadf294ae9c55b804a3 *16 Space.flac
31892117d27ef62f7506cd929776767f *17 I Will Take You Home.flac
bc31f8a46cc1a4721ddfdaa56aa990e8 *18 The Other One.flac
9f31d9c31b99388354d6c46e7851c5b8 *19 Wharf Rat.flac
13a38ad552ca9e852c8ec71df5b50c58 *20 Throwing Stones.flac
9d77eab3da62d8a8cc46dd2df24bf97b *21 Not Fade Away.flac
99820b605ce34ec77875c103c5a4c154 *22 Encore Break.flac
9d6bd175910772e0cdca581bed40afbe *23 US Blues.flac

Comments
Add Comment
Other Sources (comments)
AUD>DAT>CDR; Seeded to... (0) Source: Set 1... (0) flac24; Ambient... (0) flac16; Ambient... (0) flac16; SBD -> Dat... (0) flac16; Recording... (0) flac24; Recording... (0)
Date User Comment