Browse Collections Artists Sources   Search Dates

Add Show    List Management    Help


Grateful Dead 12/09/89
Great Western LA Forum, Inglewood, CA
Comments Add Comment    Source Collectors    Add to Collection    Add to Want List    History
Source # 140275 Other Sources
Entered by Matt Vernon
Checksums flac-md5 , ffp
Disc Counts 0 / 0
Media Size Compressed: 895.54 MB (939036672 bytes)
Date Circulated
Date Added
12/17/2017
12/17/2017
Source Summary flac16; Recording Info: Ultra Matrix SBD > Cassette Master (TDK MA-XG90); Transfer Info: Cassette Master (Nakamichi CR-7A) > Tascam DA-3000 (DSF 1-bit/5.8 MHz) > KORG AudioGate 4 > Adobe Audition CC2015 > Samplitude Pro X3 Suite > FLAC/24; All Transfers and Mastering By Charlie Miller; the original source had errors on the last three tracks; please don't circulate that version 
  Archive
Source Information - Download Text | Download Zip
Grateful Dead - December 9, 1989
Great Western Forum - Inglewood, CA

Recording Info:
Ultra Matrix SBD > Cassette Master (TDK MA-XG90)

Transfer Info:
Cassette Master (Nakamichi CR-7A) > Tascam DA-3000 (DSF 1-bit/5.8 MHz) >
KORG AudioGate 4 > Adobe Audition CC2015 > Samplitude Pro X3 Suite > FLAC/24
(1 Disc FLAC)

All Transfers and Mastering By Charlie Miller
[email protected]
December 10, 2017

Notes:
-- This is a fixed version of shnid=140180 (last 3 tracks corrected)
-- Two sets of masters were used to make this show complete
-- This file set is 16 bit

Set 1:
01 - Tuning
02 - Touch Of Gray
03 - New Minglewood Blues
04 - Row Jimmy
05 - Mexicali Blues >
06 - Cumberland Blues
07 - Bird Song
08 - One More Saturday Night

Set 2:
09 - Tuning
10 - Foolish Heart >
11 - Playing In The Band >
12 - Crazy Fingers >
13 - Uncle John's Band
14 - Playing In The Band >
15 - Drums >
16 - Space >
17 - Dear Mr. Fantasy >
18 - Hey Jude >
19 - Turn On Your Lovelight

Encore:
20 - Encore Break
21 - Knockin' On Heaven's Door


SHNTOOL OUTPUT:
    length     expanded size    cdr  WAVE problems  fmt   ratio  filename
     0:56.08        9897260 B   ---   --   ---xx   flac  0.4619  01 Tuning.flac
     7:24.17       78361628 B   ---   --   ---xx   flac  0.6075  02 Touch Of Grey.flac
     9:31.09      100745612 B   ---   --   ---xx   flac  0.5955  03 New Minglewood Blues.flac
    13:16.40      140508524 B   ---   --   ---xx   flac  0.5716  04 Row Jimmy.flac
     4:18.66       45666476 B   ---   --   ---xx   flac  0.6378  05 Mexicali Blues.flac
     5:54.67       62603228 B   ---   --   ---xx   flac  0.6180  06 Cumberland Blues.flac
    13:30.50      143001644 B   ---   --   ---xx   flac  0.6021  07 Bird Song.flac
     5:22.50       56918444 B   ---   --   ---xx   flac  0.6372  08 One More Saturday Night.flac
     1:35.07       16774508 B   ---   --   ---xx   flac  0.4801  09 Tuning.flac
     9:24.22       99541388 B   ---   --   ---xx   flac  0.6403  10 Foolish Heart.flac
     8:59.17       95119628 B   ---   --   ---xx   flac  0.6273  11 Playing In The Band.flac
     8:34.25       90728444 B   ---   --   ---xx   flac  0.5976  12 Crazy Fingers.flac
    10:16.38      108751820 B   ---   --   ---xx   flac  0.6361  13 Uncle John's Band.flac
     3:28.02       36695948 B   ---   --   ---xx   flac  0.6126  14 Playing In The Band.flac
     8:09.41       86356076 B   ---   --   ---xx   flac  0.5384  15 Drums.flac
    13:01.04      137777852 B   ---   --   ---xx   flac  0.5316  16 Space.flac
     5:28.61       58002716 B   ---   --   ---xx   flac  0.6006  17 Dear Mr Fantasy.flac
     2:32.05       26824604 B   ---   --   ---xx   flac  0.6353  18 Hey Jude.flac
     6:34.73       69673340 B   ---   --   ---xx   flac  0.6089  19 Turn On Your Lovelight.flac
     2:53.03       30524300 B   ---   --   ---xx   flac  0.4945  20 Encore Break.flac
     8:02.26       85085996 B   ---   --   ---xx   flac  0.5862  21 Knockin' On Heaven's Door.flac
   149:14.31     1579559436 B                            0.5945  (21 files)




Show Checksums
flac-md5
3852e6bf3fac2d2b16f8b8e1012051d7 *01 Tuning.flac
b1373e203e1dd52d08baaae2a3f8fa95 *02 Touch Of Grey.flac
f59a39336b22769deb4f630cad75db42 *03 New Minglewood Blues.flac
8fbf7b6470be518eda593c9fbeef1e38 *04 Row Jimmy.flac
0a0a6cafc208db1d0d5874fc89430206 *05 Mexicali Blues.flac
75a078abc7e8075755259f1a22f18357 *06 Cumberland Blues.flac
63486ea3d893f608040623f9ac9ef36a *07 Bird Song.flac
47eb0c45c2d85bdfb40e8543aa194dbe *08 One More Saturday Night.flac
35db2b92465e00c48b87f6e9727f1a92 *09 Tuning.flac
5a843342e9c9fa4b6d376987f6dec8fc *10 Foolish Heart.flac
6def5b9a1a9ca2ceb556b4257c748f32 *11 Playing In The Band.flac
73c444f84f10b33eea7c4afe113559bd *12 Crazy Fingers.flac
c7ea47bc1eaeb553a2000a7c172ab2da *13 Uncle John's Band.flac
9672cd4c8d1bb99853a53d6f0d7895b7 *14 Playing In The Band.flac
abd4e0dc6e9e8395e65739f137053df6 *15 Drums.flac
ca9557909e633cfe755c39b34cd35f2b *16 Space.flac
a47ce528c9c41fb90ddef884de27e2ef *17 Dear Mr Fantasy.flac
ec23676222e254fe577eaf6209ba09df *18 Hey Jude.flac
5cc95f0fadb3ba9703d3bc695e5fdb40 *19 Turn On Your Lovelight.flac
aa1b58327b6431cf94b7c935d7c787b4 *20 Encore Break.flac
62ee9bce90c78960e0a112848e693bb6 *21 Knockin' On Heaven's Door.flac
ffp
01 Tuning.flac:8075a7fc51e0724664bc471d13060f4e
02 Touch Of Grey.flac:aac3c31d0b4295d198833da0fa9ed972
03 New Minglewood Blues.flac:920fa4b69d14bed16e9aa1e7d021f569
04 Row Jimmy.flac:e77f719c3041494fac047e32228b6028
05 Mexicali Blues.flac:47d32677b496e6cb9a82306b504d9884
06 Cumberland Blues.flac:dbf504bc34d6cfa0447a6180a44ccb51
07 Bird Song.flac:f7199a640858edacebfec680299324ea
08 One More Saturday Night.flac:2187eaab20606d7116aec9f4bed962a0
09 Tuning.flac:2208b1f8624561b03adc86dbc4bd39fb
10 Foolish Heart.flac:35679b196b9f3ac168f846ccee31fb88
11 Playing In The Band.flac:b1a09e19edf3b9ff7a8e397ca4d514c8
12 Crazy Fingers.flac:77878609758a624b94d8a11f1c3b2420
13 Uncle John's Band.flac:0e62171c585251bbc01c835a1cd47ee6
14 Playing In The Band.flac:96cb9187df10ab2ecbf0ab99fea5b14c
15 Drums.flac:c1fd79db1fd52ca8f416f91c337135a1
16 Space.flac:c2b9a5cb7d65883dbea52bdf2b31a4df
17 Dear Mr Fantasy.flac:b3493ee33ea7b7a4ef49cb636e07f688
18 Hey Jude.flac:ca5f7c9181e0eeda1287fbd4e8196e86
19 Turn On Your Lovelight.flac:d2107601474d907f201ffc7594c98e7e
20 Encore Break.flac:2f8c04d05b7d072574a39cbe9b4a786e
21 Knockin' On Heaven's Door.flac:b2ff52e20501c0284e6be2ac1e4e0cff

Comments
Add Comment
Other Sources (comments)
SBD > DAT > CDR > WAV >... (0) Source: SBD > DAT > CDR >... (0) flac24; Ambient... (0) flac16; Ambient... (0) flac16; Source:... (0) flac24; Recording... (5) flac16/48 ... (0) flac16/48kHz;... (0)
Date User Comment