Browse Collections Artists Sources   Search Dates

Add Show    List Management    Help


Grateful Dead 08/26/93
Shoreline Amphitheatre, Mountain View, CA
Comments Add Comment    Source Collectors    Add to Collection    Add to Want List    History
Source # 140282 Other Sources
Entered by Matt Vernon
Checksums flac-md5 , ffp
Disc Counts 0 / 0
Media Size
Uncompressed: 1.63 GB (1747154800 bytes)
Date Circulated
Date Added
12/18/2017
12/18/2017
Source Summary flac16/48kHz; Source: (FOB) Schoeps MK41 > Panasonic SV-255 > dat(48k); Transfer: dat > Sony PCM-R500 > Tascam DA-3000> wav 16/48; Lineage: wav > iZotope RX6 Advanced > iZotope Ozone 5 Advanced > CD Wave > TLH > Flac 1648; edited and mastered SIRMick December 2017 
  Archive
Source Information - Download Text | Download Zip
Grateful Dead
Shoreline Amphitheatre
Mountain View, CA
08/26/1993


Source: (FOB) Schoeps MK41 > Panasonic SV-255 > dat(48k)
Transfer: dat > Sony PCM-R500 > Tascam DA-3000> wav 16/48
Lineage: wav > iZotope RX6 Advanced > iZotope Ozone 5 Advanced > CD Wave > TLH > Flac 1648



Set I

01   tuning
02   Hell In A Bucket >
03   Bertha
04   Wang Dang Doodle
05   Candyman
06   Just Like Tom Thumb's Blues
07   Let It Grow >
08   Don't Ease Me In


Set II

01   crowd/tuning
02   Crazy Fingers >
03   Saint Of Circumstance >
04   Way To Go Home
05   He's Gone >
06   Drums >
07   Space >
08   The Other One >
09   Stella Blue >
10   Around And Around
11   ~~encore break~~

encore

12   Rain



Thanks to Charlie Miller for providing this source and doing the transfer.


edited and mastered
SIRMick
December 2017


shntool output:

    length     expanded size    cdr  WAVE problems  fmt   ratio  filename
     0:04.413        847404 B   cxx   --   ---xx   flac  0.0095  gd1993-08-26s1t01.flac
     2:15.640      26042924 B   cxx   --   ---xx   flac  0.3418  gd1993-08-26s1t02.flac
     5:51.067      67404844 B   cxx   --   ---xx   flac  0.5032  gd1993-08-26s1t03.flac
     7:11.480      82844204 B   cxx   --   ---xx   flac  0.4882  gd1993-08-26s1t04.flac
     8:08.693      93829164 B   cxx   --   ---xx   flac  0.4357  gd1993-08-26s1t05.flac
     7:16.093      83729964 B   cxx   --   ---xx   flac  0.4626  gd1993-08-26s1t06.flac
    18:00.320     207421484 B   cxx   --   ---xx   flac  0.4805  gd1993-08-26s1t07.flac
     3:27.067      39756844 B   cxx   --   ---xx   flac  0.4967  gd1993-08-26s1t08.flac
     3:20.333      38464044 B   cxx   --   ---xx   flac  0.3285  gd1993-08-26s2t01.flac
     7:56.387      91466284 B   cxx   --   ---xx   flac  0.4762  gd1993-08-26s2t02.flac
     7:30.293      86456364 B   cxx   --   ---xx   flac  0.4913  gd1993-08-26s2t03.flac
     6:26.760      74257964 B   cxx   --   ---xx   flac  0.4957  gd1993-08-26s2t04.flac
    12:39.093     145745964 B   cxx   --   ---xx   flac  0.4542  gd1993-08-26s2t05.flac
    17:14.827     198686764 B   cxx   --   ---xx   flac  0.4064  gd1993-08-26s2t06.flac
    13:00.120     149783084 B   cxx   --   ---xx   flac  0.3920  gd1993-08-26s2t07.flac
     7:02.680      81154604 B   cxx   --   ---xx   flac  0.4540  gd1993-08-26s2t08.flac
     8:25.280      97013804 B   cxx   --   ---xx   flac  0.4031  gd1993-08-26s2t09.flac
     8:10.147      94108204 B   cxx   --   ---xx   flac  0.4833  gd1993-08-26s2t10.flac
     2:35.640      29882924 B   cxx   --   ---xx   flac  0.3634  gd1993-08-26s2t11.flac
     5:03.427      58257964 B   cxx   --   ---xx   flac  0.4973  gd1993-08-26s2t12.flac
   151:39.760    1747154800 B                            0.4491  (20 files)


Show Checksums
flac-md5
736b6067384bba7ff96586b00f25fc02 *gd1993-08-26s1t01.flac
4f3aaa31587811833ccda7b60e8886f7 *gd1993-08-26s1t02.flac
ac5367b625bdae79b38b0b93dce99767 *gd1993-08-26s1t03.flac
9a877f9973610049034358ca128f7b39 *gd1993-08-26s1t04.flac
40400cb2ba19fada0f3d1fb6b79f2493 *gd1993-08-26s1t05.flac
64971d4747f17b43d21e2b2902853320 *gd1993-08-26s1t06.flac
0dfb0e764e86c813a5dc3514029ff982 *gd1993-08-26s1t07.flac
1c5ad401233a5f057beb3c88ad4edcf7 *gd1993-08-26s1t08.flac
bbe5dc1ef79d9272438ae62d2af0cfec *gd1993-08-26s2t01.flac
eab855dde88ce278230e2dc17a60624a *gd1993-08-26s2t02.flac
d4332ce533a11eb64cfa254718f455d4 *gd1993-08-26s2t03.flac
e9d4478f22d0da18c0737864d4aac129 *gd1993-08-26s2t04.flac
952ca7f833e0d97d665912815b6a2348 *gd1993-08-26s2t05.flac
23f07912fc58b85f10811ee7b6892c9e *gd1993-08-26s2t06.flac
377cd8a797e58322505ea6b58f928a84 *gd1993-08-26s2t07.flac
e57c8f98b46bf50fb0f0c66380703022 *gd1993-08-26s2t08.flac
2387debba66ca6f26efd15cfa711533d *gd1993-08-26s2t09.flac
8f5d2ae9b8df235fa1cc0a998576f7d4 *gd1993-08-26s2t10.flac
4e183aec85a99e58658a82f02f5e94c0 *gd1993-08-26s2t11.flac
51dc67ac0df9a21fb0a282c302f13c7e *gd1993-08-26s2t12.flac
ffp
gd1993-08-26s1t01.flac:ab955bc7d9a5c25c4d475f611ca94528
gd1993-08-26s1t02.flac:c562136715b589e4e98d31ce8c455197
gd1993-08-26s1t03.flac:1acae8acea56e3c04727519e3f88cc42
gd1993-08-26s1t04.flac:97289542e9c16cd85602a3ffc1ff98e4
gd1993-08-26s1t05.flac:a2565de5892eadf8697ca2775b898087
gd1993-08-26s1t06.flac:965bbaa5db167df956fbef64b605d716
gd1993-08-26s1t07.flac:510e5c6a2785972c2b63336ba2b6079e
gd1993-08-26s1t08.flac:b09ebdbb01676aa2ec6371e3133a07df
gd1993-08-26s2t01.flac:f0c7b143b328f386de7b4a0bc038b248
gd1993-08-26s2t02.flac:167fe6d842d4a62026aa95653ff817e3
gd1993-08-26s2t03.flac:083385e53c44aa86e474bcaa2c1dce23
gd1993-08-26s2t04.flac:ceb6ce93bfd4bfd7bbbd440e4e37b1cf
gd1993-08-26s2t05.flac:928ce15164f6eb630965de7d3eb53020
gd1993-08-26s2t06.flac:0ecb53c7a44149172d884da59127c589
gd1993-08-26s2t07.flac:3048be2e6cc2d63bde8efd83eb97ee8c
gd1993-08-26s2t08.flac:734a016e2d186f48a11f2ddd6c3d65ec
gd1993-08-26s2t09.flac:98a668b006019317320f481b13d53e18
gd1993-08-26s2t10.flac:2e45e5a17b9d5863548bb38a040eff89
gd1993-08-26s2t11.flac:7613e2d83d890bb5fa6943a19818aa60
gd1993-08-26s2t12.flac:4cfc02d0c2eaa794d74e7d62487e0288

Comments
Add Comment
Other Sources (comments)
SBD>DAT>CM>DAT>DAT Clone... (0) flac16; Schoeps... (0)
Date User Comment